Легенда аллеи звезд / Mayor of the Sunset Strip (Джордж Хикенлупер / George Hickenlooper) [2003, США, Музыкальный, документальный, биография, DVDRip] MVO


Статистика раздачи [Обновить пиров]
Размер:  1.46 GB   |    Зарегистрирован:  1 год 1 месяц   |    Скачан:  0 раз

Полного источника не было: Никогда

 
   
 
 
 

[Цитировать]

Легенда аллеи звезд / Mayor of the Sunset Strip«One unlikely man made America listen»- Страна: США
Жанр: Музыкальный, документальный, биография
Год выпуска: 2003
Продолжительность: 01:30:09-Перевод: Профессиональный (многоголосый закадровый)
Cубтитры: нет-Режиссер: Джордж Хикенлупер / George Hickenlooper-В ролях: Родни Бингенхаймер, Шер, Элис Купер, Кортни Лав, Мик Джаггер, Нэнси Синатра, Гвен Стефани, Тори Амос, Билли Джо Армстронг, Бек, Джелло Биафра, Бинг Бингенхаймер, Зельда Бингенхаймер, Д.Дж. Боунбрейк, Сонни Боно, Дэвид Боуи-Описание: Он тусовался с Элвисом и кормил "битлов" отборными креветками, он "зажигал" в клубах вместе с Элтоном Джоном и ставил в эфир "Sex Pistols", когда во всей Америке они были самым страшным табу. Легендарный Родни Бингенхаймер, знаменитый ди-джей лос-анджелесской радиостанции KROQ, "приемный сын" Сони и Шер, основатель уникальной дискотеки "English Disco", открывшей для британского рока дорогу в Штаты, - этот экстравагантный коротышка, "раскрутивший" карьеру молодого гения Дэвида Боуи, на протяжении 30 лет является "мессией" новой музыки в Америке!-Sample | IMDB | КиноПоиск-Тип релиза: DVDRip [исх. DVDRip]
Формат видео: AVI-Видео:704x528 (1.33:1), 25 fps, XviD build 50, 1865 kbps avg, 0.20 bit/pixel
Аудио: 48 kHz, AC3 Dolby Digital, 3/2 (L,C,R,l,r) + LFE ch, 448.00 kbps avg [Russian_MVO]-

MediaInfo

General
Complete name : D:\Мои релизы\Mayor of the Sunset Strip_RG_All_Films.avi
Format : AVI
Format/Info : Audio Video Interleave
File size : 1.46 GiB
Duration : 1h 30mn
Overall bit rate : 2 323 Kbps
Writing application : VirtualDubMod 1.5.10.3
Writing library : VirtualDubMod build 2550/release
Video
ID : 0
Format : MPEG-4 Visual
Format profile : Advanced Simple@L5
Format settings, BVOP : Yes
Format settings, QPel : No
Format settings, GMC : No warppoints
Format settings, Matrix : Custom
Codec ID : XVID
Codec ID/Hint : XviD
Duration : 1h 30mn
Bit rate : 1 866 Kbps
Width : 704 pixels
Height : 528 pixels
Display aspect ratio : 4:3
Frame rate : 25.000 fps
Color space : YUV
Chroma subsampling : 4:2:0
Bit depth : 8 bits
Scan type : Progressive
Compression mode : Lossy
Bits/(Pixel*Frame) : 0.201
Stream size : 1.17 GiB (80%)
Writing library : XviD 1.2.1 (UTC 2008-12-04)
Audio
ID : 1
Format : AC-3
Format/Info : Audio Coding 3
Mode extension : CM (complete main)
Codec ID : 2000
Duration : 1h 30mn
Bit rate mode : Constant
Bit rate : 448 Kbps
Channel(s) : 6 channels
Channel positions : Front: L C R, Side: L R, LFE
Sampling rate : 48.0 KHz
Bit depth : 16 bits
Compression mode : Lossy
Stream size : 289 MiB (19%)
Alignment : Split accross interleaves
Interleave, duration : 40 ms (1.00 video frame)
Interleave, preload duration : 500 ms

Скриншоты

-Торрент-файл был перезалит по причине восстановления релиза 01.03.2014
[teatrix.ru].t9189.torrent 
Торрент: Зарегистрирован [ 2015-10-18 20:31 ] · 6A7A4D449689D5AE2F6D853B3C023FDFBCA132F4

Скачать .torrent

Скачать

15 KB

Статус: проверено
Скачан: 0 раз
Размер: 1.46 GB
terms.php



Быстрый ответ

Имя:

      
Для отправки сообщений необходимо включить JavaScript
Показать сообщения:    

Текущее время: 07-Дек 00:50

Часовой пояс: UTC + 3


Вы можете начинать темы
Вы можете отвечать на сообщения
Вы не можете редактировать свои сообщения
Вы не можете удалять свои сообщения
Вы не можете голосовать в опросах
Вы не можете прикреплять файлы к сообщениям
Вы можете скачивать файлы