Опра Уинфри: мастер-класс от звезд: Джон Бон Джови / Oprah\'s Master Class with Jon Bon Jovi [2012, Биография, Интервью, IPTVRip]


Статистика раздачи [Обновить пиров]
Размер:  479 MB   |    Зарегистрирован:  1 год 1 месяц   |    Скачан:  0 раз

Полного источника не было: Никогда

 
   
 
 
 

[Цитировать]

Опра Уинфри: мастер-класс от звезд: Джон Бон Джови / Oprah's Master Class with Jon Bon Jovi
Год выпуска: 2012
Страна: USA
Жанр: Биография, Интервью
Продолжительность: 00:44:14
Перевод: Профессиональный (двухголосый закадровый)
Описание: За тридцать лет Джон Бон Джови продал 125 миллионов пластинок. Певец рассказывает о невероятном взлёте на вершины славы и о том, какие важные уроки он при этом вынес.
Сэмпл: http://multi-up.com/913798
качество: IPTVRip
формат: AVI
Видео: Xvid 704x480 25fps 1375 Kbps
Аудио: MP3 48000Hz 128kbps

MediaInfo

General
Complete name : C:\Users\Desktop\Опра Уинфри мастер-класс от звезд - Джон Бон Джови.avi
Format : AVI
Format/Info : Audio Video Interleave
File size : 479 MiB
Duration : 44mn 13s
Overall bit rate : 1 513 Kbps
Writing application : VirtualDubMod 1.5.10.3 | www.virtualdub-fr.org || (build 2550/release)
Writing library : VirtualDubMod build 2550/release
Video
ID : 0
Format : MPEG-4 Visual
Format profile : Advanced Simple@L5
Format settings, BVOP : Yes
Format settings, QPel : No
Format settings, GMC : No warppoints
Format settings, Matrix : Default (MPEG)
Codec ID : XVID
Codec ID/Hint : XviD
Duration : 44mn 13s
Bit rate : 1 375 Kbps
Width : 704 pixels
Height : 480 pixels
Display aspect ratio : 3:2
Frame rate : 25.000 fps
Standard : NTSC
Color space : YUV
Chroma subsampling : 4:2:0
Bit depth : 8 bits
Scan type : Progressive
Compression mode : Lossy
Bits/(Pixel*Frame) : 0.163
Stream size : 435 MiB (91%)
Writing library : XviD 1.2.1 (UTC 2008-12-04)
Audio
ID : 1
Format : MPEG Audio
Format version : Version 1
Format profile : Layer 3
Codec ID : 55
Codec ID/Hint : MP3
Duration : 44mn 13s
Bit rate mode : Constant
Bit rate : 128 Kbps
Channel count : 2 channels
Sampling rate : 48.0 KHz
Compression mode : Lossy
Stream size : 40.5 MiB (8%)
Alignment : Aligned on interleaves
Interleave, duration : 40 ms (1.00 video frame)
Interleave, preload duration : 504 ms
Writing library : LAME3.99r
Encoding settings : -m s -V 4 -q 0 -lowpass 17 -b 128

Скриншоты

[teatrix.ru].t9190.torrent 
Торрент: Зарегистрирован [ 2015-10-18 20:31 ] · 86A6C231DF14DE7EBB9B85902D5D3551406C25

Скачать .torrent

Скачать

19 KB

Статус: проверено
Скачан: 0 раз
Размер: 479 MB
terms.php



Быстрый ответ

Имя:

      
Для отправки сообщений необходимо включить JavaScript
Показать сообщения:    

Текущее время: 05-Дек 23:39

Часовой пояс: UTC + 3


Вы можете начинать темы
Вы можете отвечать на сообщения
Вы не можете редактировать свои сообщения
Вы не можете удалять свои сообщения
Вы не можете голосовать в опросах
Вы не можете прикреплять файлы к сообщениям
Вы можете скачивать файлы