Майкл Джексон. Дело Москва 1993: Когда король поп-музыки познакомился с Советами / Michael Jackson Moscow Case 1993: When The King Of Pop Met The Soviets (Egor Trubnikoff) [2012, докуменальный, DVDRip]


Статистика раздачи [Обновить пиров]
Размер:  753 MB   |    Зарегистрирован:  1 год 1 месяц   |    Скачан:  0 раз

Полного источника не было: Никогда

 
   
 
 
 

[Цитировать]

Майкл Джексон. Дело Москва 1993: Когда король поп-музыки познакомился с Советами
.
Год выпуска: 2012
Страна: США
Жанр: документальный
Продолжительность: 00:55:32
Перевод: не требуется
Русские субтитры: нет
Режиссер: Egor Trubnikoff
Описание: The Moscow Case is a 52 minute documentary with never-before-seen footage of Michael Jackson in Moscow during the "Dangerous" tour. This film tells the behind the scenes story of Jackson's ill fated concert in September 1993. It includes unique archival footage showing Michael close up and personal while meeting fans and playing with orphan children. This documentary is valuable to anyone seeking insight into Jackson's personality as well as anyone interested in doing business in Russia after the end of communism.
Дополнительно: Фильм о приезде Майкла Джексона в Москву в сентябре 1993 года.
SAMPLE
Качество: DVDRip
Формат: AVI
Видео кодек: XviD
Аудио кодек: AC3
Видео: 640x364 (16/9) 29,97 fps 1500 kb/s MPEG-4 (XviD)
Аудио 1: 48.0 kHz, 2 ch, 192 kbps, AC3 russian
Аудио 2: 48.0 kHz, 2 ch, 192 kbps, AC3 english
.

Скриншоты


MI

Общее
Полное имя : \Michael Jackson. Moscow Case 1993.avi
Формат : AVI
Формат/Информация : Audio Video Interleave
Размер файла : 700 Мбайт
Продолжительность : 55 м.
Общий поток : 1768 Кбит/сек
Программа кодирования : VirtualDubMod 1.4.13
Библиотека кодирования : VirtualDub build 14328/release
Видео
Идентификатор : 0
Формат : MPEG-4 Visual
Профиль формата : Advanced Simple@L5
Параметр BVOP формата : Нет
Параметр QPel формата : Нет
Параметр GMC формата : Без точки перехода
Параметр матрицы формата : Default (H.263)
Идентификатор кодека : XVID
Идентификатор кодека/Подсказка : XviD
Продолжительность : 55 м.
Битрейт : 1564 Кбит/сек
Ширина : 640 пикселей
Высота : 364 пикселя
Соотношение сторон : 16:9
Частота кадров : 29,970 кадров/сек
Цветовое пространство : YUV
Субдискретизация насыщенности : 4:2:0
Битовая глубина : 8 бит
Тип развёртки : Прогрессивная
Метод сжатия : С потерями
Бит/(Пиксели*Кадры) : 0.224
Размер потока : 619 Мбайт (88%)
Библиотека кодирования : XviD 1.2.1 (UTC 2008-12-04)
Аудио
Идентификатор : 1
Формат : AC-3
Формат/Информация : Audio Coding 3
Расширение режима : CM (complete main)
Параметр Endianness формата : Big
Идентификатор кодека : 2000
Продолжительность : 55 м.
Вид битрейта : Постоянный
Битрейт : 192 Кбит/сек
Каналы : 2 канала
Расположение каналов : Front: L R
Частота : 48,0 КГц
Битовая глубина : 16 бит
Метод сжатия : С потерями
Размер потока : 76,0 Мбайт (11%)
Выравнивание : Разделение по промежуткам
Продолжительность промежутка : 33 мс. (1,00 видеокадр)
Время предзагрузки промежутка : 500 мс.
.
[
[teatrix.ru].t9192.torrent 
Торрент: Зарегистрирован [ 2015-10-18 20:31 ] · 6C15DECA71D1886A681F56D6DECD06AD1286A09C

Скачать .torrent

Скачать

30 KB

Статус: проверено
Скачан: 0 раз
Размер: 753 MB
terms.php



Быстрый ответ

Имя:

      
Для отправки сообщений необходимо включить JavaScript
Показать сообщения:    

Текущее время: 11-Дек 14:54

Часовой пояс: UTC + 3


Вы можете начинать темы
Вы можете отвечать на сообщения
Вы не можете редактировать свои сообщения
Вы не можете удалять свои сообщения
Вы не можете голосовать в опросах
Вы не можете прикреплять файлы к сообщениям
Вы можете скачивать файлы