Виктор Цой (группа "Кино"). Дети минут. Части I-III (из цикла "Еловая субмарина. История русского рока", Александр Липницкий) [2008 г., Документальный цикл, DVB]


Статистика раздачи [Обновить пиров]
Размер:  3.48 GB   |    Зарегистрирован:  1 год 1 месяц   |    Скачан:  0 раз

Полного источника не было: Никогда

 
   
 
 
 

[Цитировать]

Виктор Цой. Дети минут. Части I-III (из цикла "Еловая субмарина. История русского рока")
Год выпуска: 2008
Страна: Россия (телеканал "Ностальгия")
Жанр: Документальный
Продолжительность: 03:07:09 (00:57:12+01:10:41+00:59:16)
Автор, режиссер и ведущий: Александр Липницкий
В ролях: Виктор Цой, Константин Кинчев, Борис Гребенщиков, Марьяна Цой, Александр Цой, Александр Липницкий, Георгий Гурьянов, Юрий Каспарян, Сергей Бугаев, Игорь Тихомиров, Наталья Разлогова, Алексей Рыбин, Сергей Курехин
Описание: Через маленькую студию на чердаке подмосковной дачи журналиста и рок-музыканта Александра Липницкого прошла вся классика русского рока. Рок без прикрас. Романтика квартирников и нищета коммуналок, минуты высоких откровений и времена безумий...
Цикл программ "Еловая субмарина" - это полная история русского рока глазами очевидца.
Программа "Дети минут" (в трех частях: "У каждого свое «Кино»", "Радоваться надо!" и "Новые будетляне") посвящена Виктору Цою и группе "Кино".

Качество: DVB
Формат: MPEG-PS
Видео: MPEG-2, 704x576@768x576 (4/3), 25 fps, ~2435 Mbps (0.240 bit/pixel)
Аудио: MPEG Audio Layer 2, 48.0 KHz, 2 ch, 192 Kbps, CBR

MediaInfoЧасть I

General
Complete name : ...\Еловая субмарина. В. Цой. Дети минут. Часть 1. У каждого свое КИНО.mpg
Format : MPEG-PS
File size : 1.08 GiB
Duration : 57mn 12s
Overall bit rate mode : Variable
Overall bit rate : 2 700 Kbps
Video
ID : 224 (0xE0)
Format : MPEG Video
Format version : Version 2
Format profile : Main@Main
Format settings, BVOP : Yes
Format settings, Matrix : Custom
Duration : 57mn 12s
Bit rate mode : Variable
Bit rate : 2 454 Kbps
Maximum bit rate : 15.0 Mbps
Width : 704 pixels
Height : 576 pixels
Display aspect ratio : 4:3
Frame rate : 25.000 fps
Standard : PAL
Color space : YUV
Chroma subsampling : 4:2:0
Bit depth : 8 bits
Compression mode : Lossy
Bits/(Pixel*Frame) : 0.242
Stream size : 1 004 MiB (91%)
Audio
ID : 192 (0xC0)
Format : MPEG Audio
Format version : Version 1
Format profile : Layer 2
Duration : 57mn 12s
Bit rate mode : Constant
Bit rate : 192 Kbps
Channel(s) : 2 channels
Sampling rate : 48.0 KHz
Compression mode : Lossy
Stream size : 78.6 MiB (7%)

Часть II

General
Complete name : ...\Еловая субмарина. В. Цой. Дети минут. Часть 2. Радоваться надо!.mpg
Format : MPEG-PS
File size : 1.31 GiB
Duration : 1h 10mn
Overall bit rate mode : Variable
Overall bit rate : 2 661 Kbps
Video
ID : 224 (0xE0)
Format : MPEG Video
Format version : Version 2
Format profile : Main@Main
Format settings, BVOP : Yes
Format settings, Matrix : Custom
Duration : 1h 10mn
Bit rate mode : Variable
Bit rate : 2 416 Kbps
Maximum bit rate : 15.0 Mbps
Width : 704 pixels
Height : 576 pixels
Display aspect ratio : 4:3
Frame rate : 25.000 fps
Standard : PAL
Color space : YUV
Chroma subsampling : 4:2:0
Bit depth : 8 bits
Compression mode : Lossy
Bits/(Pixel*Frame) : 0.238
Stream size : 1.19 GiB (91%)
Audio
ID : 192 (0xC0)
Format : MPEG Audio
Format version : Version 1
Format profile : Layer 2
Duration : 1h 10mn
Bit rate mode : Constant
Bit rate : 192 Kbps
Channel(s) : 2 channels
Sampling rate : 48.0 KHz
Compression mode : Lossy
Delay relative to video : 8ms
Stream size : 97.1 MiB (7%)

Часть III

General
Complete name : ...\Еловая субмарина. В. Цой. Дети минут. Часть 3. Новые будетляне.mpg
Format : MPEG-PS
File size : 1.09 GiB
Duration : 59mn 16s
Overall bit rate mode : Variable
Overall bit rate : 2 632 Kbps
Video
ID : 224 (0xE0)
Format : MPEG Video
Format version : Version 2
Format profile : Main@Main
Format settings, BVOP : Yes
Format settings, Matrix : Custom
Duration : 59mn 16s
Bit rate mode : Variable
Bit rate : 2 388 Kbps
Maximum bit rate : 15.0 Mbps
Width : 704 pixels
Height : 576 pixels
Display aspect ratio : 4:3
Frame rate : 25.000 fps
Standard : PAL
Color space : YUV
Chroma subsampling : 4:2:0
Bit depth : 8 bits
Compression mode : Lossy
Bits/(Pixel*Frame) : 0.236
Stream size : 1 012 MiB (91%)
Audio
ID : 192 (0xC0)
Format : MPEG Audio
Format version : Version 1
Format profile : Layer 2
Duration : 59mn 16s
Bit rate mode : Constant
Bit rate : 192 Kbps
Channel(s) : 2 channels
Sampling rate : 48.0 KHz
Compression mode : Lossy
Stream size : 81.4 MiB (7%)
[teatrix.ru].t9193.torrent 
Торрент: Зарегистрирован [ 2015-10-18 20:31 ] · D982E7901267A81F90198C5BAED095FF83A9CC4F

Скачать .torrent

Скачать

18 KB

Статус: проверено
Скачан: 0 раз
Размер: 3.48 GB
terms.php



Быстрый ответ

Имя:

      
Для отправки сообщений необходимо включить JavaScript
Показать сообщения:    

Текущее время: 05-Дек 19:38

Часовой пояс: UTC + 3


Вы можете начинать темы
Вы можете отвечать на сообщения
Вы не можете редактировать свои сообщения
Вы не можете удалять свои сообщения
Вы не можете голосовать в опросах
Вы не можете прикреплять файлы к сообщениям
Вы можете скачивать файлы