Ален Делон о фильме На ярком солнце / Interview mit Alain Delon - Nur die Sonne war Zeuge DVD & Blu-ray Special Edition [2013, документальный, кинематограф, DVDRip-AVC] Original (Fre) + Sub (Rus)


Статистика раздачи [Обновить пиров]
Размер:  24 MB   |    Зарегистрирован:  1 год 1 месяц   |    Скачан:  0 раз

Полного источника не было: Никогда

 
   
 
 
 

[Цитировать]

Ален Делон о фильме "На ярком солнце"
Interview mit Alain Delon - Nur die Sonne war Zeuge DVD & Blu-ray Special Edition- Дата/Год выпуска: 2013
Страна: Германия
Жанр: документальный, кинематограф
Продолжительность: 00:01:30
Перевод: Субтитры
Русские субтитры: естьФормат субтитров: softsub (SSA/ASS)
Доп. информация о субтитрах: перевод М_Васильев, инициатор Aleks Punk
Оригинальная аудиодорожка: французский
Режиссер: не указан
Описание: К 100-летию режиссера Рене Клемана фильм "На ярком солнце" (1959) был восстановлен и представлен в Каннах в мае 2013 года. На выпущенном 1 августа 2013 года специальном издании DVD & Blu-ray в качестве бонусов представлен документальный фильм "René Clément – Im Herzen der Nouvelle Vague" и интервью с Аленом Делоном, рассказывающим о съемках в фильме.
Доп. информация: Вшитые немецкие субтитры. За предоставленный материал благодарность Aleks Punk.

качество: DVDRip-AVC
формат: MKV
Видео: AVC (H.264), 640x352 (16:9), 25 fps, ~2000 kbps avg, 0.355 bit/pixel
Аудио: AC3, 2 ch, 48 kHz, ~192.00 kbps avg

Пример субтитров

Dialogue: 0,0:00:06.05,0:00:09.39,Default,,0,0,0,,{\pos(322,315)}Когда я снимался в своём самом первом\Nфильме "Когда вмешивается женщина",Dialogue: 0,0:00:09.59,0:00:12.53,Default,,0,0,0,,{\pos(317,305)}режиссер Ив Аллегре сказал мне:Dialogue: 0,0:00:12.73,0:00:15.24,Default,,0,0,0,,{\pos(319,307)}"Не играй. Просто ходи,Dialogue: 0,0:00:16.27,0:00:20.14,Default,,0,0,0,,{\pos(315,302)}как ты ходишь в обычной жизни,Dialogue: 0,0:00:20.84,0:00:24.00,Default,,0,0,0,,{\pos(316,316)}говори, как говоришь,\Nсмотри, как смотришь.Dialogue: 0,0:00:24.20,0:00:25.66,Default,,0,0,0,,{\pos(307,318)}И все. Играть не надо".Dialogue: 0,0:00:25.86,0:00:28.65,Default,,0,0,0,,{\pos(313,317)}Вот и все.Dialogue: 0,0:00:28.85,0:00:31.63,Default,,0,0,0,,{\pos(317,318)}Так я и делал всю жизнь.Dialogue: 0,0:00:31.83,0:00:35.23,Default,,0,0,0,,{\pos(314,306)}У меня нет актёрского образования,Dialogue: 0,0:00:35.43,0:00:38.29,Default,,0,0,0,,{\pos(321,317)}и это мне никогда не мешало.Dialogue: 0,0:00:38.49,0:00:40.87,Default,,0,0,0,,{\pos(318,303)}Рене знал это.Dialogue: 0,0:00:41.07,0:00:44.67,Default,,0,0,0,,{\pos(332,316)}Он говорил: "Здесь надо сделать так,\Nа здесь вот так".Dialogue: 0,0:00:44.87,0:00:46.61,Default,,0,0,0,,{\pos(334,319)}"Хорошо", - отвечал я и делал.Dialogue: 0,0:00:46.81,0:00:48.71,Default,,0,0,0,,{\pos(317,315)}Я не был актёром.Dialogue: 0,0:00:54.05,0:00:55.90,Default,,0,0,0,,{\pos(317,316)}Я вообще ничего не знал\Nоб этой профессии.Dialogue: 0,0:00:56.10,0:01:00.75,Default,,0,0,0,,{\pos(313,302)}Даже меньше, чем ничего.Dialogue: 0,0:01:02.03,0:01:07.18,Default,,0,0,0,,{\pos(328,314)}До этого у меня были эпизоды в 3 фильмах,\Nу меня было представление,Dialogue: 0,0:01:07.38,0:01:11.49,Default,,0,0,0,,{\pos(322,312)}что такое сьёмочная площадка, что такое\Nкамера, что значит "попадать в кадр".Dialogue: 0,0:01:11.69,0:01:13.75,Default,,0,0,0,,{\pos(317,316)}Вот и все.Dialogue: 0,0:01:16.82,0:01:20.94,Default,,0,0,0,,{\pos(325,307)}НА ЯРКОМ СОЛНЦЕDialogue: 0,0:01:21.71,0:01:30.35,Default,,0,0,0,,{\pos(321,333)}Специальное DVD & Blu-ray издание.

MediaInfo

Общее
Уникальный идентификатор : 236732413860582632896094564663030914819 (0xB2190124B10199F2B383E26F7B431F03)
Полное имя : E:\My Torrents 2\[apreder]Interview_mit_Alain_Delon_Nur_die_Sonne_war_Zeuge(2013)DVDRip.mkv
Формат : Matroska
Версия формата : Version 2
Размер файла : 23,8 Мбайт
Продолжительность : 1 м. 30 с.
Общий поток : 2201 Кбит/сек
Дата кодирования : UTC 2015-01-31 10:17:48
Программа кодирования : mkvmerge v7.5.0 ('Glass Culture') 64bit built on Jan 4 2015 16:48:44
Библиотека кодирования : libebml v1.3.1 + libmatroska v1.4.2
Видео
Идентификатор : 1
Формат : AVC
Формат/Информация : Advanced Video Codec
Профиль формата : High@L4.1
Параметр CABAC формата : Да
Параметр ReFrames формата : 16 кадров
Идентификатор кодека : V_MPEG4/ISO/AVC
Продолжительность : 1 м. 30 с.
Битрейт : 2000 Кбит/сек
Ширина : 640 пикселей
Высота : 352 пикселя
Соотношение сторон : 16:9
Режим частоты кадров : Постоянный
Частота кадров : 25,000 кадров/сек
Цветовое пространство : YUV
Субдискретизация насыщенности : 4:2:0
Битовая глубина : 8 бит
Тип развёртки : Прогрессивная
Бит/(Пиксели*Кадры) : 0.355
Размер потока : 21,2 Мбайт (89%)
Библиотека кодирования : x264 core 144 r2525 40bb568
Настройки программы : cabac=1 / ref=16 / deblock=1:-1:-1 / analyse=0x3:0x133 / me=umh / subme=10 / psy=1 / psy_rd=1.00:0.15 / mixed_ref=1 / me_range=24 / chroma_me=1 / trellis=2 / 8x8dct=1 / cqm=0 / deadzone=21,11 / fast_pskip=1 / chroma_qp_offset=-3 / threads=6 / lookahead_threads=1 / sliced_threads=0 / nr=0 / decimate=1 / interlaced=0 / bluray_compat=0 / constrained_intra=0 / bframes=8 / b_pyramid=2 / b_adapt=2 / b_bias=0 / direct=3 / weightb=1 / open_gop=0 / weightp=2 / keyint=250 / keyint_min=25 / scenecut=40 / intra_refresh=0 / rc_lookahead=60 / rc=2pass / mbtree=1 / bitrate=2000 / ratetol=1.0 / qcomp=0.60 / qpmin=0 / qpmax=69 / qpstep=4 / cplxblur=20.0 / qblur=0.5 / vbv_maxrate=62500 / vbv_bufsize=78125 / nal_hrd=none / filler=0 / ip_ratio=1.40 / aq=1:1.00
Default : Да
Forced : Нет
Аудио
Идентификатор : 2
Формат : AC-3
Формат/Информация : Audio Coding 3
Расширение режима : CM (complete main)
Параметр Endianness формата : Big
Идентификатор кодека : A_AC3
Продолжительность : 1 м. 30 с.
Вид битрейта : Постоянный
Битрейт : 192 Кбит/сек
Каналы : 2 канала
Расположение каналов : Front: L R
Частота : 48,0 КГц
Битовая глубина : 16 бит
Метод сжатия : С потерями
Размер потока : 2,07 Мбайт (9%)
Язык : French
Default : Да
Forced : Нет
Текст
Идентификатор : 3
Формат : ASS
Идентификатор кодека : S_TEXT/ASS
Идентификатор кодека/Информация : Advanced Sub Station Alpha
Метод сжатия : Без потерь
Язык : Russian
Default : Да
Forced : Нет

Скриншоты

Резервные скриншоты

-[2'086]
[teatrix.ru].t9215.torrent 
Торрент: Зарегистрирован [ 2015-10-18 20:31 ] · 7E169C7FE87EBE2E9B75BE4BBCAB8F641A754927

Скачать .torrent

Скачать

8 KB

Статус: проверено
Скачан: 0 раз
Размер: 24 MB
terms.php



Показать сообщения:    

Текущее время: 06-Дек 15:14

Часовой пояс: UTC + 3


Вы не можете начинать темы
Вы не можете отвечать на сообщения
Вы не можете редактировать свои сообщения
Вы не можете удалять свои сообщения
Вы не можете голосовать в опросах
Вы не можете прикреплять файлы к сообщениям
Вы можете скачивать файлы