Интервью: Терри Гиллиам, Стивен Фрирз / In Conversation / Сезон 1 / 2 эпизода из 12 (Линди Савиль / Lyndy Saville) [2010, ток-шоу, кинематограф, DVB] VO (Первый канал)


Статистика раздачи [Обновить пиров]
Размер:  1.14 GB   |    Зарегистрирован:  1 год 1 месяц   |    Скачан:  0 раз

Полного источника не было: Никогда

 
   
 
 
 

[Цитировать]

Интервью
In Conversation- Дата/Год выпуска: 2010
Страна: Великобритания, США
Жанр: ток-шоу, кинематограф
Продолжительность: 00:51:10 (2 по ~00:25:00)
Перевод: Студийный (одноголосый закадровый)
Доп. инфо о переводе: по заказу ЗАО "Первый канал. Всемирная сеть"
Русские субтитры: нет
Режиссер: Линди Савиль / Lyndy Saville
Телеканал: Время: далекое и близкоеОписание: В цикле передач, подготовленных британской студией документальных фильмов 3DD Productions совместно с Sundance International, именитый британский киновед Дерек Малькольм / Derek Malcolm беседует с известными режиссерами и актерами о кинематографических легендах, превратностях судьбы, жизни, карьере и вдохновении…-Дерек Малькольм три десятка лет проработал кинокритиком в газете The Guardian, является членом совета Института британских фильмов, ранее занимал должность директора Лондонского кинофестиваля.-Доп. информация: DVB-S. Вышло 2 сезона передач. Канал не анонсирует показ обоих сезонов. Показ эпизодов идет не по порядку.
качество: DVB
формат: MKV
Видео: MPEG Video 2, 720x576@768x576 (4:3), 25 fps, ~2979 kbps avg, 0.287 bit/pixel
Аудио: MPEG Audio 2, 2 ch, 48 kHz, ~192.00 kbps avg

Список выпусков/серий

Сезон 1, Эпизод 01: Терри Гиллиам / Terry GilliamСезон 1, Эпизод 08: Стивен Фрирз / Stephen Frears

MediaInfo

ОбщееУникальный идентификатор : 209759134398076588217131504614658457874 (0x9DCE23CA3BF9D9A98F4BB8144A4EC112)Полное имя : E:\My Torrents 2\[apreder]In_Conversation\01. In_Conversation_s.1_ep.01_Terry_Gilliam(2010)DVB.mkvФормат : MatroskaВерсия формата : Version 2Размер файла : 626 МбайтПродолжительность : 27 м.Режим общего битрейта : ПеременныйОбщий поток : 3235 Кбит/секДата кодирования : UTC 2014-12-12 12:43:05Программа кодирования : mkvmerge v7.3.0 ('Nouages') 64bit built on Oct 22 2014 18:53:34Библиотека кодирования : libebml v1.3.0 + libmatroska v1.4.1
ВидеоИдентификатор : 1Формат : MPEG VideoВерсия формата : Version 2Профиль формата : Main@MainПараметр BVOP формата : ДаПараметр матрицы формата : ВыборочнаяПараметр GOP формата : M=3, N=12Format_Settings_PictureStructure : FrameИдентификатор кодека : V_MPEG2Идентификатор кодека/Информация : MPEG 1 or 2 VideoПродолжительность : 27 м.Вид битрейта : ПеременныйБитрейт : 2979 Кбит/секШирина : 720 пикселейВысота : 576 пикселейСоотношение сторон : 4:3Режим частоты кадров : ПостоянныйЧастота кадров : 25,000 кадров/секСтандарт вещания : PALЦветовое пространство : YUVСубдискретизация насыщенности : 4:2:0Битовая глубина : 8 битТип развёртки : ЧересстрочнаяПорядок развёртки : Верхнее поле первоеМетод сжатия : С потерямиБит/(Пиксели*Кадры) : 0.287Временной код первого кадра : 00:00:00:00Оригинал временного кода : Group of pictures headerРазмер потока : 576 Мбайт (92%)Default : ДаForced : НетGop_OpenClosed_FirstFrame : Closed
АудиоИдентификатор : 2Формат : MPEG AudioВерсия формата : Version 1Профиль формата : Layer 2Идентификатор кодека : A_MPEG/L2Идентификатор кодека/Подсказка : MP2Продолжительность : 27 м.Вид битрейта : ПостоянныйБитрейт : 192 Кбит/секКаналы : 2 каналаЧастота : 48,0 КГцМетод сжатия : С потерямиРазмер потока : 37,1 Мбайт (6%)Язык : RussianDefault : ДаForced : Нет

Скриншоты

Резервные скриншоты


-

Внимание! Раздача ведётся путём добавления новых выпусков

Внимание! Раздача ведётся путём добавления новых выпусков; при каждом добавлении создаётся новый торрент. Чтобы начать докачку нового выпуска, пользователям необходимо сделать следующее:
(1) остановить скачивание,
(2) удалить старый торрент у себя из клиента (старые серии удалять не надо),
(3) скачать новый торрент и запустить его у себя в клиенте вместо старого, при этом указать клиенту путь в старую папку куда и должно происходить скачивание новых выпусков.
Ваш клиент при этом должен произвести хеширование (проверку) старой папки (если не производит сам - помогите ему сделать это). В результате он будет докачивать только те выпуски, которых у Вас ещё нет. Старые выпуски при этом не удаляются, а продолжают раздаваться!
Eсли Вы уже удалили старые выпуски, то предотвратить их повторную закачку можно, сняв галочки в соответствующих местах при запуске нового торрента. По возможности, желательно не удалять старые выпуски как можно дольше, чтобы релизёр не только продолжал раздавать старые выпуски, но и смог сконцентрироваться на новых.
-[1'976]
[teatrix.ru].t9217.torrent 
Торрент: Зарегистрирован [ 2015-10-18 20:31 ] · 2DA137878A752256A03D901FA4E533E925900186

Скачать .torrent

Скачать

12 KB

Статус: проверено
Скачан: 0 раз
Размер: 1.14 GB
terms.php



Показать сообщения:    

Текущее время: 05-Дек 05:32

Часовой пояс: UTC + 3


Вы не можете начинать темы
Вы не можете отвечать на сообщения
Вы не можете редактировать свои сообщения
Вы не можете удалять свои сообщения
Вы не можете голосовать в опросах
Вы не можете прикреплять файлы к сообщениям
Вы можете скачивать файлы