По страницам американского кино, Выпуск 3 (Ольга Садовская) [1991, киноконцерт, кинематограф, DVB]


Статистика раздачи [Обновить пиров]
Размер:  829 MB   |    Зарегистрирован:  1 год 1 месяц   |    Скачан:  0 раз

Полного источника не было: Никогда

 
   
 
 
 

[Цитировать]

По страницам американского кино
Киноконцерт, Выпуск 3- Дата/Год выпуска: 1991
Страна: СССР
Жанр: киноконцерт, кинематограф
Продолжительность: 00:41:14
Перевод: Профессиональный (дублированный)
Русские субтитры: нет
Режиссер: Ольга Садовская
Телеканал: НостальгияОписание: Киноконцерты разных лет "эпохи развитого социализма" пользовались в свое время большой популярностью и теперь не утратили своей притягательности.
Использованы фрагменты фильмов: "Смешная девчонка", "Полуночный поцелуй", "Кабаре", "Серенада солнечной долины", "Любимец Нового Орлеана", "Большие гонки", "Семь невест для семи братьев", "Моя прекрасная леди", "Большой вальс", "Любовь и аэробика".
Доп. информация: DVB-S

качество: DVB
формат: MKV
Видео: MPEG Video 2, 720x576@768x576 (4:3), 25 fps, ~2563 kbps avg, 0.247 bit/pixel
Аудио: MPEG Audio 2, 2 ch, 48 kHz, ~192.00 kbps avg

MediaInfo

ОбщееУникальный идентификатор : 235203064261542947437395211647366654650 (0xB0F27662F2243A21B38412EAE9F6EABA)Полное имя : E:\My Torrents 2\[apreder]Po_satranitzam_American_kino_v.3(1991)DVB.mkvФормат : MatroskaВерсия формата : Version 2Размер файла : 829 МбайтПродолжительность : 41 м.Режим общего битрейта : ПеременныйОбщий поток : 2811 Кбит/секДата кодирования : UTC 2014-11-01 15:41:03Программа кодирования : mkvmerge v7.3.0 ('Nouages') 64bit built on Oct 22 2014 18:53:34Библиотека кодирования : libebml v1.3.0 + libmatroska v1.4.1
ВидеоИдентификатор : 1Формат : MPEG VideoВерсия формата : Version 2Профиль формата : Main@MainПараметр BVOP формата : НетПараметр матрицы формата : ВыборочнаяFormat_Settings_PictureStructure : FrameИдентификатор кодека : V_MPEG2Идентификатор кодека/Информация : MPEG 1 or 2 VideoПродолжительность : 41 м.Вид битрейта : ПеременныйБитрейт : 2563 Кбит/секМаксимальный битрейт : 5413 Кбит/секШирина : 720 пикселейВысота : 576 пикселейСоотношение сторон : 4:3Режим частоты кадров : ПостоянныйЧастота кадров : 25,000 кадров/секСтандарт вещания : PALЦветовое пространство : YUVСубдискретизация насыщенности : 4:2:0Битовая глубина : 8 битТип развёртки : ЧересстрочнаяПорядок развёртки : Верхнее поле первоеМетод сжатия : С потерямиБит/(Пиксели*Кадры) : 0.247Временной код первого кадра : 00:00:00:00Оригинал временного кода : Group of pictures headerРазмер потока : 756 Мбайт (91%)Default : ДаForced : Нет
АудиоИдентификатор : 2Формат : MPEG AudioВерсия формата : Version 1Профиль формата : Layer 2Идентификатор кодека : A_MPEG/L2Идентификатор кодека/Подсказка : MP2Продолжительность : 41 м.Вид битрейта : ПостоянныйБитрейт : 192 Кбит/секКаналы : 2 каналаЧастота : 48,0 КГцМетод сжатия : С потерямиРазмер потока : 56,6 Мбайт (7%)Язык : RussianDefault : ДаForced : Нет

Скриншоты

Резервные скриншоты

-[1'868]
[teatrix.ru].t9218.torrent 
Торрент: Зарегистрирован [ 2015-10-18 20:31 ] · 6FBADF785D83ADFC902D702B6C6555A521F4C6A2

Скачать .torrent

Скачать

17 KB

Статус: проверено
Скачан: 0 раз
Размер: 829 MB
terms.php



Показать сообщения:    

Текущее время: 11-Дек 07:15

Часовой пояс: UTC + 3


Вы не можете начинать темы
Вы не можете отвечать на сообщения
Вы не можете редактировать свои сообщения
Вы не можете удалять свои сообщения
Вы не можете голосовать в опросах
Вы не можете прикреплять файлы к сообщениям
Вы можете скачивать файлы