Уага Парадизо / Ouaga Paradiso (Тьерри Робер / Thierry Robert) [2011, документальный, экзотический национальный кинематограф, DVB] Original (Fre) + Sub (ru hard)


Статистика раздачи [Обновить пиров]
Размер:  1.64 GB   |    Зарегистрирован:  1 год 1 месяц   |    Скачан:  0 раз

Полного источника не было: Никогда

 
   
 
 
 

[Цитировать]

Уага Парадизо
Ouaga Paradiso- Дата/Год выпуска: 2011
Страна: Буркина-Фасо, Франция
Жанр: документальный, экзотический национальный кинематограф
Продолжительность: 00:56:00
Перевод: Субтитры
Русские субтитры: есть
Формат субтитров: hardsub (неотключаемые)
Доп. информация о субтитрах: перевод Е. Маньен, Éclair Group
Оригинальная аудиодорожка: французский
Режиссер: Тьерри Робер / Thierry Robert
Телеканал: TV5MONDEОписание: В Уагадугу, Буркина-Фасо, уже 40 лет проходит крупнейший в Африке кинофестиваль FESPACO. Судя по всему, африканское кино сегодня находится в упадке: оно очень сильно зависит от денег Запада. Но все же новое поколение кинематографистов старается развивать самое дорогое искусство в одной из беднейших стран.
В фильме пойдет рассказ о четырех режиссерах, борющихся за то, чтобы африканское кино жило: Бубакар Диалло / Boubakar Diallo, Карин Савадого / Carine Sawadogo, Кука Эме Зонго / Kouka Aime Zongo и Эммануэль Ротубам М'Баиде / Emmanuel Rotoubam M'Baide. (из предисловия к фильму)
Доп. информация: DVB-S. Во время нефранцузской речи на экране дополнительно вшитые французские субтитры.
Участник FESPACO 2011; Festival Lumières d'Afrique à Besançon 2011; festival Etonnants Voyageurs 2012.

качество: DVB
формат: MKV
Видео: MPEG Video 2, 704x576@1024x576 (16:9), 25 fps, ~3918 kbps avg, 0.387 bit/pixel
Аудио: Французский (MPEG Audio 2, 2 ch, 48 kHz, ~192.00 kbps avg)

MediaInfo

ОбщееУникальный идентификатор : 229236980628592596529776274096519045538 (0xAC756FC0C7E5C359B7E071472D7EE1A2)Полное имя : E:\My Torrents 2\[apreder]Ouaga_Paradiso(2011)DVB.mkvФормат : MatroskaВерсия формата : Version 2Размер файла : 1,64 ГбайтПродолжительность : 56 м.Режим общего битрейта : ПеременныйОбщий поток : 4194 Кбит/секДата кодирования : UTC 2014-08-11 14:12:11Программа кодирования : mkvmerge v7.1.0 ('Good Love') 64bit built on Jul 27 2014 13:06:55Библиотека кодирования : libebml v1.3.0 + libmatroska v1.4.1
ВидеоИдентификатор : 1Формат : MPEG VideoВерсия формата : Version 2Профиль формата : Main@MainПараметр BVOP формата : НетПараметр матрицы формата : ВыборочнаяИдентификатор кодека : V_MPEG2Идентификатор кодека/Информация : MPEG 1 or 2 VideoПродолжительность : 56 м.Вид битрейта : ПеременныйБитрейт : 3918 Кбит/секМаксимальный битрейт : 6705 Кбит/секШирина : 704 пикселяВысота : 576 пикселейСоотношение сторон : 16:9Режим частоты кадров : ПостоянныйЧастота кадров : 25,000 кадров/секСтандарт вещания : PALЦветовое пространство : YUVСубдискретизация насыщенности : 4:2:0Битовая глубина : 8 битТип развёртки : ЧересстрочнаяПорядок развёртки : Верхнее поле первоеМетод сжатия : С потерямиБит/(Пиксели*Кадры) : 0.387Временной код первого кадра : 00:00:00:00Оригинал временного кода : Group of pictures headerРазмер потока : 1,53 Гбайт (93%)Default : ДаForced : Нет
АудиоИдентификатор : 2Формат : MPEG AudioВерсия формата : Version 1Профиль формата : Layer 2Идентификатор кодека : A_MPEG/L2Идентификатор кодека/Подсказка : MP2Продолжительность : 56 м.Вид битрейта : ПостоянныйБитрейт : 192 Кбит/секКаналы : 2 каналаЧастота : 48,0 КГцМетод сжатия : С потерямиРазмер потока : 76,9 Мбайт (5%)Язык : FrenchDefault : ДаForced : Нет

Скриншоты


Резервные скриншоты


-[1'618]
[teatrix.ru].t9219.torrent 
Торрент: Зарегистрирован [ 2015-10-18 20:31 ] · C6389DB2AE985BDC6229FA72EC533E1BA0CCF6DB

Скачать .torrent

Скачать

17 KB

Статус: проверено
Скачан: 0 раз
Размер: 1.64 GB
terms.php



Показать сообщения:    

Текущее время: 05-Дек 17:34

Часовой пояс: UTC + 3


Вы не можете начинать темы
Вы не можете отвечать на сообщения
Вы не можете редактировать свои сообщения
Вы не можете удалять свои сообщения
Вы не можете голосовать в опросах
Вы не можете прикреплять файлы к сообщениям
Вы можете скачивать файлы