Встреча с Анатолием Папановым / Анатолий Папанов (Центральное телевидение) [1975, фильм-концерт, кинематограф, DVB]


Статистика раздачи [Обновить пиров]
Размер:  3.38 GB   |    Зарегистрирован:  1 год 1 месяц   |    Скачан:  0 раз

Полного источника не было: Никогда

 
   
 
 
 

[Цитировать]

Встреча с Анатолием Папановым- Год выпуска: 1975
Страна: СССР
Жанр: фильм-концерт, кинематограф
Продолжительность: 01:35:04 (00:48:09 + 00:46:55)
Перевод: Не требуется
Русские субтитры: нет
Режиссер: Центральное телевидениеВ ролях: Анатолий Папанов, Спартак Мишулин, Кирилл Лавров, Валентин Плучек, Андрей Миронов, Клара Румянова, Александр Ширвиндт
Описание: В 1975 году у Анатолия Папанова не было никакого юбилея, но этот артист был столь популярен, что на телевидении решили снять про него документальный фильм.
Анатолий Дмитриевич вспоминает свою жизнь и сам рассказывает о том, как с первых дней войны записался добровольцем в Армию. Был старшим сержантом, командовал взводом. Сначала в первом же бою убило его товарища и командира, потом, в начале 1942 года он сам получил тяжёлое ранение под Харьковом. Несколько месяцев провёл в госпитале и в 21 год стал инвалидом. Вернувшись в Москву, пошел с палочкой на актёрский факультет ГИТИСа.
Анатолий Папанов размышляет о комичном: "Комедийный актер – предполагает реакцию зрительного зала. И там где ее нет – это жестокий удар. Актер опытный умеет это скрыть, но, тем не менее, получает пощечину, и хорошую! Нельзя винить зрительный зал, нужно искать причину в себе. Сатирическое искусство, по-моему, несколько посложнее, чем драматическое".
В фильме есть кадры из кинокартин "Белорусский вокзал", "Живые и мертвые", фрагмент спектакля театра Сатиры "У времени в плену" и телеспектакля "12 стульев". Тема войны - была очень важна и волнительная для Папанова. Он очень тепло отзывался о коллегах Георгии Менглете, с которым делил гримуборную, о Татьяне Пельцер. Конечно, нельзя не вспомнить о его озвучивании мультфильмов, в особенности "Ну, погоди!" в котором он сотрудничал с Кларой Румяновой. И русская классика. Папанов играл городничего в гоголевском "Ревизоре", Фамусова в "Горе от ума" Грибоедова. Эти роли помогли раскрыть в полной мере трагикомические способности актера. (анонс канала "Ностальгия")
Доп. информация: Запись со спутника (телеканал "Ностальгия"). Фильм в 2-х частях.
Сэмпл: http://multi-up.com/918484
качество: DVB
формат: MPEG-PS
Видео: MPEG Video 2, 720x576@768x576 (4:3), 25 fps, ~4800 kbps avg, 0.463 bit/pixel
Аудио: 48 kHz, MPEG Audio 2, 2 ch, ~192.00 kbps avg

MediaInfo

Полное имя : H:\My Torrents\[apreder]Anatoli_Papanov(1975)DVB\[apreder]Anatoli_Papanov_Pt.1(1975)DVB.mpgФормат : MPEG-PSРазмер файла : 1,71 ГбайтПродолжительность : 48 м.Режим общего битрейта : ПеременныйОбщий поток : 5093 Кбит/сек
ВидеоИдентификатор : 224 (0xE0)Формат : MPEG VideoВерсия формата : Version 2Профиль формата : Main@MainПараметр BVOP формата : ДаПараметр матрицы формата : ВыборочнаяПараметр GOP формата : VariableПродолжительность : 48 м.Вид битрейта : ПеременныйБитрейт : 4800 Кбит/секШирина : 720 пикселейВысота : 576 пикселейСоотношение сторон : 4:3Частота кадров : 25,000 кадров/секСтандарт вещания : PALЦветовое пространство : YUVСубдискретизация насыщенности : 4:2:0Битовая глубина : 8 битТип развёртки : ЧересстрочнаяПорядок развёртки : Верхнее поле первоеМетод сжатия : С потерямиБит/(Пиксели*Кадры) : 0.463Временной код первого кадра : 00:00:00:00Оригинал временного кода : Group of pictures headerРазмер потока : 1,62 Гбайт (94%)
АудиоИдентификатор : 192 (0xC0)Формат : MPEG AudioВерсия формата : Version 1Профиль формата : Layer 2Продолжительность : 48 м.Вид битрейта : ПостоянныйБитрейт : 192 Кбит/секКаналы : 2 каналаЧастота : 48,0 КГцМетод сжатия : С потерямиРазмер потока : 66,2 Мбайт (4%)

Скриншоты


Резервные скриншоты


-1'031/1'013√
[teatrix.ru].t9222.torrent 
Торрент: Зарегистрирован [ 2015-10-18 20:31 ] · 2689FCC21EFA9137B77FDF49E68646A7C4014D9E

Скачать .torrent

Скачать

18 KB

Статус: проверено
Скачан: 0 раз
Размер: 3.38 GB
terms.php



Показать сообщения:    

Текущее время: 07-Дек 15:29

Часовой пояс: UTC + 3


Вы не можете начинать темы
Вы не можете отвечать на сообщения
Вы не можете редактировать свои сообщения
Вы не можете удалять свои сообщения
Вы не можете голосовать в опросах
Вы не можете прикреплять файлы к сообщениям
Вы можете скачивать файлы