Разбирая обстоятельства... "Пристань". Как это было... (Андрей Вязигин) [2011, Кинематограф, SATRip]


Статистика раздачи [Обновить пиров]
Размер:  613 MB   |    Зарегистрирован:  1 год 1 месяц   |    Скачан:  0 раз

Полного источника не было: Никогда

 
   
 
 
 

[Цитировать]

Разбирая обстоятельства... "Пристань". Как это было...
Год выпуска: 2011
Страна: Россия
Жанр: Кинематограф
Продолжительность: 0:44:16
Перевод: Не требуется
Русские субтитры: нет
Режиссер: Андрей Вязигин

Описание: Фильм-наблюдение за процессом создания театрального спектакля "Пристань" в Государственном академическом театре
им. Евг. Вахтангова. В то время, как режиссёры разбирают с артистами обстоятельства жизни их сценических персонажей,
авторы фильма разбирают обстоятельства жизни и работы самих актёров и режиссёров.

Доп. информация: Автор сценария: Алина Дериглазова
Текст читает Карэн Бадалов. В фильме использована музыка Фаустаса Латенаса, фото и видеоматериалы из архива музея театра.

Автор релиза: lesik689
Речь пойдет об этом фильме:Сэмпл: http://multi-up.com/901694
качество: SATRip
формат: AVI
Видео: Codec XviD Name XviD ISO MPEG-4 720х400 1797 kbps 25 fp8s
Аудио: Codec 0x2000 (Dolby AC3) AC3 CBR 48 kHz 128 kb/s tot stereo 2/0

Список выпусков/серий

1 серия

MediaInfo

Формат : AVI
Формат/Информация : Audio Video Interleave
Размер файла : 613 Мбайт
Продолжительность : 44 м.
Общий поток : 1936 Кбит/сек
Программа кодирования : VirtualDubMod 1.5.10.2 (build 2542/release)
Библиотека кодирования : VirtualDubMod build 2542/release
Видео
Идентификатор : 0
Формат : MPEG-4 Visual
Профиль формата : Advanced Simple@L5
Параметр BVOP формата : 2
Параметр QPel формата : Нет
Параметр GMC формата : Без точки перехода
Параметр матрицы формата : Default (MPEG)
Режим смешивания : Сжатый битовый поток
Идентификатор кодека : XVID
Идентификатор кодека/Подсказка : XviD
Продолжительность : 44 м.
Битрейт : 1798 Кбит/сек
Ширина : 720 пикселей
Высота : 400 пикселей
Соотношение сторон : 5:4
Соотношение сторон в оригинале : 16:9
Частота кадров : 25,000 кадров/сек
Цветовое пространство : YUV
Субдискретизация насыщенности : 4:2:0
Битовая глубина : 8 бит
Тип развёртки : Прогрессивная
Метод сжатия : С потерями
Бит/(Пиксели*Кадры) : 0.250
Размер потока : 569 Мбайт (93%)
Библиотека кодирования : XviD 64
Аудио
Идентификатор : 1
Формат : AC-3
Формат/Информация : Audio Coding 3
Расширение режима : CM (complete main)
Параметр Endianness формата : Big
Идентификатор кодека : 2000
Продолжительность : 44 м.
Вид битрейта : Постоянный
Битрейт : 128 Кбит/сек
Каналы : 2 канала
Расположение каналов : Front: L R
Частота : 48,0 КГц
Битовая глубина : 16 бит
Метод сжатия : С потерями
Размер потока : 40,5 Мбайт (7%)
Выравнивание : Соединение по промежуткам
Продолжительность промежутка : 40 мс. (1,00 видеокадр)
Время предзагрузки промежутка : 512 мс.

Скриншоты

[teatrix.ru].t9223.torrent 
Торрент: Зарегистрирован [ 2015-10-18 20:31 ] · 3BF0D7395C4786765F31A85D310B507852299C66

Скачать .torrent

Скачать

13 KB

Статус: проверено
Скачан: 0 раз
Размер: 613 MB
terms.php



Показать сообщения:    

Текущее время: 05-Дек 05:29

Часовой пояс: UTC + 3


Вы не можете начинать темы
Вы не можете отвечать на сообщения
Вы не можете редактировать свои сообщения
Вы не можете удалять свои сообщения
Вы не можете голосовать в опросах
Вы не можете прикреплять файлы к сообщениям
Вы можете скачивать файлы