Анимация от А до Я (Марголина, Ляховецкий) [1996, документальное кино, SATRip]


Статистика раздачи [Обновить пиров]
Размер:  16.56 GB   |    Зарегистрирован:  1 год 1 месяц   |    Скачан:  0 раз

Полного источника не было: Никогда

 
   
 
 
 

[Цитировать]

Анимация от А до Я
Год выпуска: 1996-1997
Страна: Россия
Жанр: документальное кино
Продолжительность: 00:26:00
Перевод: Не требуется
Русские субтитры: нет
Режиссер: Марголина, Ляховецкий
Описание: Цикл из 52 передач об истории Российской (Советской) анимации, зарубежных авторах и событиях. Истории создания фильмов, рассказы о жизни режиссеров.
Среди участников: Ф. Хитрук, Ю.Б. Норштейн и многие другие.
Ведущий Э.В. Назаров
Для специалистов, интересующихся и широкой аудитории
Доп. информация: 1 - Вводная передача, начало рассказа о В. Старевиче
2 - В. Старевич
3, 4 - А. Алексеев
5,6 - Л. Амальрик
7-10 - Ф. Хитрук
11. Б. Ефимов, З. Вертов
12. З. Вертов
13-14 Фестиваль Annecy, Музей искусства для детей
15 Коммисаренко, Ходатаев, Меркулов
16-17 Ходатаев
18 День Рождения Хитрука
19-21 Крок
22-23 Ю. Меркулов
24-25 Фестиваль Fantoche
26-27 Швацгебель
28 Швацгебель
29-30 Наг Ансорж
31 - 32 Коммисаренко З.П.
33 - 35 Черкес Д. Я.
36 - 41 Иванов-Вано И.П.
42 - 43 Фильмы о Новом Годе и Рождестве
44 - 45 Рауль Серве
46 - 49 Брумберг Валентина и Зинаида.
50,51 Тонино Гуэрра
52 Дэвид Эрлих
качество: SATRip
формат: AVI
Видео: AVI, XviD,720x576, 1600 kbit/sec, 25fps
Аудио: mp3, 128 kbit/sec, стерео, 48000 Hz

Скриншоты



MediaInfo

General
Complete name : Z:\_exchange\Animation_A-YA\03.avi
Format : AVI
Format/Info : Audio Video Interleave
File size : 338 MiB
Duration : 27mn 58s
Overall bit rate : 1 688 Kbps
Writing application : VirtualDubMod 1.5.10.2 (build 2540/release)
Writing library : VirtualDubMod build 2540/release
Video
ID : 0
Format : MPEG-4 Visual
Format profile : Advanced Simple@L5
Format settings, BVOP : 1
Format settings, QPel : No
Format settings, GMC : No warppoints
Format settings, Matrix : Default (H.263)
Muxing mode : Packed bitstream
Codec ID : XVID
Codec ID/Hint : XviD
Duration : 27mn 58s
Bit rate : 1 550 Kbps
Width : 720 pixels
Height : 576 pixels
Display aspect ratio : 5:4
Frame rate : 25.000 fps
Standard : PAL
Color space : YUV
Chroma subsampling : 4:2:0
Bit depth : 8 bits
Scan type : Progressive
Compression mode : Lossy
Bits/(Pixel*Frame) : 0.150
Stream size : 310 MiB (92%)
Writing library : XviD 1.1.2 (UTC 2006-11-01)
Audio
ID : 1
Format : MPEG Audio
Format version : Version 1
Format profile : Layer 3
Mode : Joint stereo
Mode extension : MS Stereo
Codec ID : 55
Codec ID/Hint : MP3
Duration : 27mn 58s
Bit rate mode : Constant
Bit rate : 128 Kbps
Channel(s) : 2 channels
Sampling rate : 48.0 KHz
Compression mode : Lossy
Stream size : 25.6 MiB (8%)
Alignment : Split accross interleaves
Interleave, duration : 40 ms (1.00 video frame)
Interleave, preload duration : 500 ms
[teatrix.ru].t9224.torrent 
Торрент: Зарегистрирован [ 2015-10-18 20:31 ] · C0FB774650FB9EA666F968937EF7F56CB4DA52F5

Скачать .torrent

Скачать

44 KB

Статус: проверено
Скачан: 0 раз
Размер: 16.56 GB
terms.php



Показать сообщения:    

Текущее время: 04-Дек 15:15

Часовой пояс: UTC + 3


Вы не можете начинать темы
Вы не можете отвечать на сообщения
Вы не можете редактировать свои сообщения
Вы не можете удалять свои сообщения
Вы не можете голосовать в опросах
Вы не можете прикреплять файлы к сообщениям
Вы можете скачивать файлы