Поздняя любовь Станислава Любшина [2013, Документальный, SATRip]


Статистика раздачи [Обновить пиров]
Размер:  522 MB   |    Зарегистрирован:  1 год 1 месяц   |    Скачан:  0 раз

Полного источника не было: Никогда

 
   
 
 
 

[Цитировать]

Поздняя любовь Станислава Любшина
Год выпуска: 2013
Страна: Студия "ГАЛАКОН"
Жанр: Документальный
Продолжительность: 00:51:24
Перевод: Не требуется
Русские субтитры: нет
Описание: Я собираюсь прожить сто пятнадцать лет!" - заявляет Станислав Любшин. И это кажется вполне вероятным, ведь у знаменитого артиста - молодая жена (на сорок лет его моложе), которая заряжает его энергией
Когда журналистка Ирина Корнеева стала женой Любшина, Станислав Андреевич словно заново родился.
Станислав и Ирина живут вместе уже почти двадцать лет и не расстаются ни на день. Станислав Андреевич на вопрос: "Как вам живется с такой молодой женой?" отшучивается: "Да какая же она молодая? Ей уже сорок лет!".
Станислав появился на свет в районе Владыкино, когда там еще была деревня. Его отец был агрономом, мама - дояркой и звездой совхозного драмкружка. Это она заразила мальчика страстью к театру. После войны Любшин окончил техникум, отслужил в армии и понял: сейчас или никогда! Перед подачей документов в театральный Стас решил посоветоваться с родителями. Они смотрели телевизор, где за мутной линзой Иван Козловский пел на фоне хора. Когда юноша сообщил о своих намерениях, мать заплакала, а отец, не отрывая глаз от телеэкрана, сказал: "Если будешь, как он (и указал на певца), то иди. А если как те, что за ним стоят - не надо!". С первого раза Любшин поступил в Щепкинское.
Он много снимался в кино, переходил из театра в театр. Сильный характер помогал ему переживать не самые легкие периоды в жизни.
В фильме принимают участие:
Станислав ЛЮБШИН, Народный артист РСФСР
Валерий ФОКИН, режиссер, Народный артист России
Евгений КИНДИНОВ, Народный артист РСФСР
Анатолий БЕЛЫЙ, Заслуженный артист России
Николай ЧИНДЯЙКИН, Заслуженный артист РСФСР
Ирина МИРОШНИЧЕНКО, Народная артистка РСФСР
Юрий СТОЯНОВ, Народный артист России
Вадим ДУБРОВИЦКИЙ, режиссер
Геннадий АЛФЕРЕНКО
Борис МЕССЕРЕР, Народный художник России
Ирэн ФЕДОРОВА, друг семьи, вдова С.Федорова
Юрий ЛЮБШИН, сын, кинооператор
Вадим ЛЮБШИН, сын, артист
Дарья ЛЮБШИНА, внучка, режиссер
Сергей БЕЗРУКОВ, Народный артист России
Олег ТАБАКОВ, режиссер, Народный артист СССР
Ирина ЛЮБШИНА, жена
Алла ДЕМИДОВА, Народная артистка РСФСР
Александр АДАБАШЬЯН, Заслуженный художник РСФСР
[url=http://imageban.ru]
качество: SATRip
формат: AVI
видеокодек: DivX
аудиокодек: MP3
Видео: DivX 5 720x400 (16:9) 25.00fps Bit rate 1250Kbps Bits/(Pixel*Frame) 0.174
Аудио: MP3 48.0 KHz 2ch. 160kbps

MediaInfo

General
Complete name : E:\torrent\Поздняя любовь Станислава Любшина.avi
Format : AVI
Format/Info : Audio Video Interleave
File size : 522 MiB
Duration : 51mn 24s
Overall bit rate : 1 420 Kbps
Writing library : VirtualDub build 32842/release
Video
ID : 0
Format : MPEG-4 Visual
Format settings, BVOP : Yes
Format settings, QPel : No
Format settings, GMC : No warppoints
Format settings, Matrix : Default (H.263)
Muxing mode : Packed bitstream
Codec ID : DX50
Codec ID/Hint : DivX 5
Duration : 51mn 24s
Bit rate : 1 250 Kbps
Width : 720 pixels
Height : 400 pixels
Display aspect ratio : 16:9
Frame rate : 25.000 fps
Color space : YUV
Chroma subsampling : 4:2:0
Bit depth : 8 bits
Scan type : Progressive
Bits/(Pixel*Frame) : 0.174
Stream size : 460 MiB (88%)
Writing library : DivX 6.8.5 (UTC 2009-08-20)
Audio
ID : 1
Format : MPEG Audio
Format version : Version 1
Format profile : Layer 3
Mode : Joint stereo
Codec ID : 55
Codec ID/Hint : MP3
Duration : 51mn 23s
Bit rate mode : Constant
Bit rate : 160 Kbps
Channel(s) : 2 channels
Sampling rate : 48.0 KHz
Stream size : 58.8 MiB (11%)
Alignment : Split accross interleaves
Interleave, duration : 40 ms (1.00 video frame)
Interleave, preload duration : 500 ms

Скриншоты

[teatrix.ru].t9225.torrent 
Торрент: Зарегистрирован [ 2015-10-18 20:31 ] · BF596DD05CCDAF2CBA5E0381E0EBD58A5F20561F

Скачать .torrent

Скачать

11 KB

Статус: проверено
Скачан: 0 раз
Размер: 522 MB
terms.php



Показать сообщения:    

Текущее время: 10-Дек 00:18

Часовой пояс: UTC + 3


Вы не можете начинать темы
Вы не можете отвечать на сообщения
Вы не можете редактировать свои сообщения
Вы не можете удалять свои сообщения
Вы не можете голосовать в опросах
Вы не можете прикреплять файлы к сообщениям
Вы можете скачивать файлы