Не совсем Голливуд: потрясающая, нераскрытая история австралийского эксплуатационного кино / Not Quite Hollywood: The Wild, Untold Story of Ozploitation! (Марк Хартли / Mark Hartley) [2008, Австралия, документальный, DVDRip]


Статистика раздачи [Обновить пиров]
Размер:  1.22 GB   |    Зарегистрирован:  1 год 1 месяц   |    Скачан:  0 раз

Полного источника не было: Никогда

 
   
 
 
 

[Цитировать]

Не совсем Голливуд: потрясающая, нераскрытая история австралийского эксплуатационного кино / Not Quite Hollywood: The Wild, Untold Story of Ozploitation!
Страна: Австралия
Жанр: документальный
Год выпуска: 2008
Продолжительность: 01:38:51
Перевод: Одноголосый закадровый Вячеслав Котов
Режиссер: Марк Хартли / Mark Hartley
В ролях:
Филлип Адамс
Глори Эннэн
Кристин Амор
Victoria Anoux
Briony Behets
Стив Бисли
Джэми Блэнкс
Грем Бланделл
Рассел Бойд
Ричард Бреннан
Описание: Документальный фильм об австралийских малобюджетных фильмах со «взрослым» рейтингом R, содержащие немало насилия, секса, «экшна» и ужасов.
И всё это с австралийской спецификой. В съёмках Марку Хартли немало помог большой поклонник австралийского кино Квентин Тарантино.
релиз:

Качество видео: DVDRip
Формат видео: AVI
Видео: MPEG-4 Visual, XVID, 921 Kbps, 640x368, 1.739, 25.000 fps, 4:2:0
Аудио: MPEG Audio, Layer 3, 128 Kbps, 2 channels, 48.0 KHz
В раздаче 4 файла:
#1 док. фильм
бонусы
#2 Интервью создателя фильма
#3 Беседа Тарантино с Брайаном Тренчард-Смитом
#4 Озплотейшн (вопросы и ответы) на Мельбурнском Международном Кинофестивале
ШОК!!! ВИДЕО!!! Просьба перекачать торрент. Исправлен рассинхрон. ВИДЕО!!! ШОК!!!
пример видео

инфо

General
Complete name : D:\torrent\1 раздачи\Не совсем Голливуд -- потрясающая, нераскрытая история австралийского эксплуатационного кино (2008)\#1 Не совсем Голливуд --потрясающая, нераскрытая история австралийского эксплуатационного кино.avi
Format : AVI
Format/Info : Audio Video Interleave
File size : 747 MiB
Duration : 1h 38mn
Overall bit rate : 1 058 Kbps
Writing application : VirtualDubMod 1.5.4.1 (build 2178/release)
Writing library : VirtualDub-MPEG2 build 24586/release
Video
ID : 0
Format : MPEG-4 Visual
Format profile : Advanced Simple@L5
Format settings, BVOP : 1
Format settings, QPel : No
Format settings, GMC : No warppoints
Format settings, Matrix : Custom
Codec ID : XVID
Codec ID/Hint : XviD
Duration : 1h 38mn
Bit rate : 921 Kbps
Width : 640 pixels
Height : 368 pixels
Display aspect ratio : 1.739
Frame rate : 25.000 fps
Color space : YUV
Chroma subsampling : 4:2:0
Bit depth : 8 bits
Scan type : Progressive
Compression mode : Lossy
Bits/(Pixel*Frame) : 0.156
Stream size : 650 MiB (87%)
Writing library : XviD 1.2.1 (UTC 2008-12-04)
Audio
ID : 1
Format : MPEG Audio
Format version : Version 1
Format profile : Layer 3
Mode : Joint stereo
Mode extension : MS Stereo
Codec ID : 55
Codec ID/Hint : MP3
Duration : 1h 38mn
Bit rate mode : Constant
Bit rate : 128 Kbps
Channel(s) : 2 channels
Sampling rate : 48.0 KHz
Compression mode : Lossy
Stream size : 90.4 MiB (12%)
Alignment : Aligned on interleaves
Interleave, duration : 40 ms (1.00 video frame)
Interleave, preload duration : 504 ms
[teatrix.ru].t9226.torrent 
Торрент: Зарегистрирован [ 2015-10-18 20:31 ] · EDD82394E4DDAF99250BC3110AC4E25EE02E9B71

Скачать .torrent

Скачать

14 KB

Статус: проверено
Скачан: 0 раз
Размер: 1.22 GB
terms.php



Показать сообщения:    

Текущее время: 07-Дек 11:38

Часовой пояс: UTC + 3


Вы не можете начинать темы
Вы не можете отвечать на сообщения
Вы не можете редактировать свои сообщения
Вы не можете удалять свои сообщения
Вы не можете голосовать в опросах
Вы не можете прикреплять файлы к сообщениям
Вы можете скачивать файлы