Знакомьтесь, артист Грибов. Кинолента жизни / Алексей Грибов (Наталья Левыкина) [2002, документальный, биография, DVB]


Статистика раздачи [Обновить пиров]
Размер:  1.62 GB   |    Зарегистрирован:  1 год 1 месяц   |    Скачан:  0 раз

Полного источника не было: Никогда

 
   
 
 
 

[Цитировать]

Знакомьтесь, артист Грибов
Кинолента жизни- Год выпуска: 2002
Страна: Россия
Жанр: документальный, биография
Продолжительность: 00:55:15
Перевод: Не требуется
Русские субтитры: нет
Режиссер: Наталья ЛевыкинаОписание: "Милый мой, хороший, любимый, дорогой, счастлива, что хоть на сцене была Вашей женой", — писала ему Фаина Раневская...
О великом, единственном и неповторимом Алексее Николаевиче Грибове (1902-1977) рассказывают его жена, Наталья Грибова, его дневники и домашний киноархив, но его истинный портрет был бы не завершенным без его ролей. Вы увидите фрагменты из спектаклей и кинофильмов: "Село Степанчиково и его обитатели", "На дне", "Без вины виноватые", "Горячее сердце", "Свадьба", "Мертвые души", "Гуттаперчивый мальчик", "Ревизор", "Верные друзья", "Шведская спичка", "Поженились старик со старухой", "Начальник Чукотки", "Вишневый сад", "Соло для часов с боем", "Три сестры".
Доп. информация: запись со спутника (канал "Время: далекое и близкое").
Сэмпл: http://multi-up.com/809513
Качество: DVB
Формат: MPEG-PS
Видео кодек: MPEG2
Аудио кодек: MP2
Видео: MPEG Video 2, 720x576@768x576 (4:3), 25 fps, ~3933 kbps avg, 0.379 bit/pixel
Аудио: 48 kHz, MPEG Audio 2, 2 ch, ~192.00 kbps avg

MediaInfo

Полное имя : H:\My Torrents\[apreder]Alexey_Gribov(2002)DVB.mpgФормат : MPEG-PSРазмер файла : 1,62 ГбайтПродолжительность : 55 м.Режим общего битрейта : ПеременныйОбщий поток : 4209 Кбит/сек
ВидеоИдентификатор : 224 (0xE0)Формат : MPEG VideoВерсия формата : Version 2Профиль формата : Main@MainПараметр BVOP формата : ДаПараметр матрицы формата : ВыборочнаяПараметр GOP формата : M=3, N=12Продолжительность : 55 м.Вид битрейта : ПеременныйБитрейт : 3933 Кбит/секШирина : 720 пикселейВысота : 576 пикселейСоотношение сторон : 4:3Частота кадров : 25,000 кадров/секСтандарт вещания : PALЦветовое пространство : YUVСубдискретизация насыщенности : 4:2:0Битовая глубина : 8 битТип развёртки : ЧересстрочнаяПорядок развёртки : Верхнее поле первоеМетод сжатия : С потерямиБит/(Пиксели*Кадры) : 0.379Размер потока : 1,52 Гбайт (93%)
АудиоИдентификатор : 192 (0xC0)Формат : MPEG AudioВерсия формата : Version 1Профиль формата : Layer 2Продолжительность : 55 м.Вид битрейта : ПостоянныйБитрейт : 192 Кбит/секКаналы : 2 каналаЧастота : 48,0 КГцМетод сжатия : С потерямиРазмер потока : 75,9 Мбайт (5%)

Скриншоты


Скриншоты анаморфированные


-532/514√
[teatrix.ru].t9229.torrent 
Торрент: Зарегистрирован [ 2015-10-18 20:31 ] · FC18A3C7C2B2B4B9AEF8CFE438D708ABA8052BCE

Скачать .torrent

Скачать

17 KB

Статус: проверено
Скачан: 0 раз
Размер: 1.62 GB
terms.php



Показать сообщения:    

Текущее время: 03-Дек 12:41

Часовой пояс: UTC + 3


Вы не можете начинать темы
Вы не можете отвечать на сообщения
Вы не можете редактировать свои сообщения
Вы не можете удалять свои сообщения
Вы не можете голосовать в опросах
Вы не можете прикреплять файлы к сообщениям
Вы можете скачивать файлы