Острова / Как я снимал Войну и мир. Анатолий Петрицкий [2012, Документальный, DVB]


Статистика раздачи [Обновить пиров]
Размер:  605 MB   |    Зарегистрирован:  1 год 1 месяц   |    Скачан:  0 раз

Полного источника не было: Никогда

 
   
 
 
 

[Цитировать]

Острова / Как я снимал Войну и мир. Анатолий Петрицкий
Год выпуска: 2012
Страна: Россия, ТК "Культура"
Жанр: Документальный
Продолжительность: 00:38:33
Перевод: Не требуется
Русские субтитры: нет
Режиссер: нет данных
Описание: Фильм "Война и мир" была всего лишь его второй самостоятельной операторской работой. Потом он снял "Мимино" с Георгием Данелией, "Мой ласковый и нежный зверь" с Эмилем Лотяну и многие другие ленты. Но годы, проведенные на съемочной площадке "Войны и мира", так и остались самыми важными в жизни Анатолия Петрицкого. О своей творческой биографии и личной жизни расскажет сам Анатолий Петрицкий и его супруга Наталья Бабочкина.
Доп. информация: Фильм об операторе Анатолии Петрицком из цикла "Острова", идущем на телеканале Культура.
Качество: DVB
Формат: TS
Видео кодек: H.264
Аудио кодек: MP2
Видео: AVC (H264) 720x576 25.00fps 1 955 Kbps
Аудио: MPEG Audio Layer 2 48000Hz stereo 128 Kbps

Скриншоты

MediaInfo

General
ID : 1 (0x1)
Complete name : G:\Торрент\Острова\Острова - Как я снимал Войну и мир. Анатолий Петрицкий - 2012\Острова - Как я снимал Войну и мир. Анатолий Петрицкий - 2012.ts
Format : MPEG-TS
File size : 605 MiB
Duration : 38mn 33s
Overall bit rate : 2 193 Kbps
Video
ID : 602 (0x25A)
Menu ID : 6 (0x6)
Format : AVC
Format/Info : Advanced Video Codec
Format version : Version 2
Format profile : Main@L3.0
Format settings, CABAC : Yes
Format settings, ReFrames : 4 frames
Codec ID : 27
Duration : 38mn 33s
Bit rate : 1 955 Kbps
Maximum bit rate : 2 169 Kbps
Width : 720 pixels
Height : 576 pixels
Display aspect ratio : 4:3
Frame rate : 25.000 fps
Standard : PAL
Color space : YUV
Chroma subsampling : 4:2:0
Bit depth : 8 bits
Scan type : Interlaced
Scan order : Top Field First
Bits/(Pixel*Frame) : 0.189
Stream size : 539 MiB (89%)
Color primaries : BT.470-6 System B, BT.470-6 System G, BT.601-6 625, BT.1358 625, BT.1700 625 PAL, BT.1700 625 SECAM
Transfer characteristics : BT.470-6 System B, BT.470-6 System G
Matrix coefficients : BT.470-6 System B, BT.470-6 System G, BT.601-6 625, BT.1358 625, BT.1700 625 PAL, BT.1700 625 SECAM, IEC 61966-2-4 601
Audio
ID : 603 (0x25B)
Menu ID : 6 (0x6)
Format : MPEG Audio
Format version : Version 1
Format profile : Layer 2
Codec ID : 4
Duration : 38mn 33s
Bit rate mode : Constant
Bit rate : 128 Kbps
Maximum bit rate : 144 Kbps
Channel(s) : 2 channels
Sampling rate : 48.0 KHz
Compression mode : Lossy
Delay relative to video : 28ms
Stream size : 35.3 MiB (6%)
Language : Russian
Menu
ID : 601 (0x259)
Menu ID : 6 (0x6)
[teatrix.ru].t9230.torrent 
Торрент: Зарегистрирован [ 2015-10-18 20:31 ] · 59976B1FEE725F56276F44E57383E9C54D340AA1

Скачать .torrent

Скачать

12 KB

Статус: проверено
Скачан: 0 раз
Размер: 605 MB
terms.php



Показать сообщения:    

Текущее время: 06-Дек 20:58

Часовой пояс: UTC + 3


Вы не можете начинать темы
Вы не можете отвечать на сообщения
Вы не можете редактировать свои сообщения
Вы не можете удалять свои сообщения
Вы не можете голосовать в опросах
Вы не можете прикреплять файлы к сообщениям
Вы можете скачивать файлы