Кино в деталях - Анатолий Белый (Эфир от 29-10-2012) [2012, Тв-Шоу, SATRip]


Статистика раздачи [Обновить пиров]
Размер:  616 MB   |    Зарегистрирован:  1 год 3 месяца   |    Скачан:  0 раз

Полного источника не было: Никогда

 
   
 
 
 

[Цитировать]

Кино в деталях - Анатолий Белый (Эфир от 29-10-2012)
Год выпуска: 2012
Страна: Россия
Жанр: Тв-Шоу
Продолжительность: 00:48:18
Перевод: Не требуется
Генеральный директор: Елена Калпахчьян
Креативный продюсер: Надежда Родионова
Режиссер: Анна Кириллова
Ведущий: Федор Бондарчук

Описание: Премьеры и кинофестивали, репортажи со съемочной площадки и знаменитые гости - самое интересное из мира кино! В своей программе Федор показывает кино с разных ракурсов: эстетическую сторону представляют актёры и режиссёры, о бизнес-составляющей с ведущим говорят продюсеры и дистрибьюторы. Валерий Тодоровский, Дмитрий Месхиев, Андрей Звягинцев, Чулпан Хаматова, Павел Лунгин и многие другие персоналии киноиндустрии - герои выпусков программы «Кино в деталях». Гости охотно откровенничают с Бондарчуком, рассказывают о творческих планах, о ходе съёмок и даже о личной жизни. При этом в программе звучат только авторитетные мнения, и только свежие новости мира кино.
Качество: SATRip
Формат: AVI
Видео кодек: XviD
Аудио кодек: MP3
Видео: XviD, 704x528, 25 fps, 1600 kbit/s
Аудио: 48 kHz, MPEG Layer 3, 2 ch, ~192.00 kbps avg
Сторонней рекламы нет!

MediaInfo

Общее
Полное имя : D:\ФИЛЬМЫ\Кино в деталях с Фёдором Бондарчуком - Анатолий Белый_SATRip_by_Серый1779.avi
Формат : AVI
Формат/Информация : Audio Video Interleave
Размер файла : 616 Мбайт
Продолжительность : 48 м.
Общий поток : 1781 Кбит/сек
Программа кодирования : VirtualDubMod 1.5.10.3 | www.virtualdub-fr.org || (build 2550/release)
Библиотека кодирования : VirtualDubMod build 2550/release
Видео
Идентификатор : 0
Формат : MPEG-4 Visual
Профиль формата : Advanced Simple@L5
Параметр BVOP формата : 2
Параметр QPel формата : Нет
Параметр GMC формата : Без точки перехода
Параметр матрицы формата : Default (H.263)
Идентификатор кодека : XVID
Идентификатор кодека/Подсказка : XviD
Продолжительность : 48 м.
Битрейт : 1603 Кбит/сек
Ширина : 704 пикс.
Высота : 528 пикс.
Соотношение сторон : 4:3
Частота кадров : 25,000 кадр/сек
Цветовое пространство : YUV
Подвыборка цветности : 4:2:0
Битовая глубина : 8 бит
Тип развёртки : Прогрессивная
Метод сжатия : С потерями
Бит/(Пиксели*Кадры) : 0.173
Размер потока : 554 Мбайт (90%)
Библиотека кодирования : XviD 1.2.1 (UTC 2008-12-04)
Аудио
Идентификатор : 1
Формат : MPEG Audio
Версия формата : Version 1
Профиль формата : Layer 3
Идентификатор кодека : 55
Идентификатор кодека/Подсказка : MP3
Продолжительность : 48 м.
Вид битрейта : Переменный
Битрейт : 165 Кбит/сек
Номинальный битрейт : 192 Кбит/сек
Каналы : 1 канал
Частота : 48,0 КГц
Метод сжатия : С потерями
Размер потока : 57,1 Мбайт (9%)
Выравнивание : Соединение по промежуткам
Продолжительность промежутка : 24 мс. (0,60 видеокадр)
Время предзагрузки промежутка : 581 ms
Библиотека кодирования : LAME3.98r
Настройки программы : -m m -V 4 -q 2 -lowpass 20.5 --abr 192
Рип:
Раздача группы:
Отдельное спасибо mydimka за предоставление исходника.

Эфир от 29-10-2012 Скриншоты

[teatrix.ru].t9232.torrent 
Торрент: Зарегистрирован [ 2015-10-18 20:31 ] · CA3000B2EDFFFF67F64DDB601B970674044BCA2A

Скачать .torrent

Скачать

13 KB

Статус: проверено
Скачан: 0 раз
Размер: 616 MB
terms.php



Показать сообщения:    

Текущее время: 19-Янв 22:16

Часовой пояс: UTC + 3


Вы не можете начинать темы
Вы не можете отвечать на сообщения
Вы не можете редактировать свои сообщения
Вы не можете удалять свои сообщения
Вы не можете голосовать в опросах
Вы не можете прикреплять файлы к сообщениям
Вы можете скачивать файлы