Путь Пазолини / Via Pasolini (Игорь Скофикс / Igor Skofic / Igor Skofič) [2005, документальный, биография, DVB] VO (Первый канал)


Статистика раздачи [Обновить пиров]
Размер:  1.21 GB   |    Зарегистрирован:  1 год 1 месяц   |    Скачан:  0 раз

Полного источника не было: Никогда

 
   
 
 
 

[Цитировать]

Путь Пазолини
Via Pasolini- Год выпуска: 2005
Страна: Италия
Жанр: документальный, биография
Продолжительность: 00:44:27
Перевод: Профессиональный (одноголосый) (по заказу ЗАО "Первый канал. Всемирная сеть")
Русские субтитры: нет
Режиссер: Игорь Скофикс / Igor Skofič
Описание: Каким был бы завтрашний путь Пазолини, сейчас можно только гадать. Пройденный же им путь со всей наглядностью показал, что неточность и сбивчивость в политических и философских установках, отличавшие развитие художника на всех этапах, необыкновенно осложнили и затруднили те поиски правды, гармонии, ту критику ненавистной ему системы западных отношений, которой художник отдавался со всей искренностью и страстью, во всю силу своего большого таланта. Остро понимая враждебность человеку строя, основанного на угнетении и подавлении личности, отрицая западную культуру, не способную ничем обогатить человечество, Пазолини страстно искал ответы на волнующие его вопросы, но так и не нашел их, фатально углубляясь в лабиринты, из которых не было выхода и которые он сам для себя построил.
Антониони, узнав о смерти Пазолини и выражая глубокую скорбь по поводу утраты, понесенной итальянской кинематографией, все же счел нужным подчеркнуть, что смерть Пазолини «вписывается» в контекст творчества режиссера. «Это высшая трагедия, предвиденная им и исследованная в разных аспектах»,— писал Антониони.
Заявление Антониони носит парадоксальный характер — вряд ли у него было основание так прямо говорить о «предвиденности» трагедии, которой оборвалась жизнь Пазолини. Но Антониони верно отметил как стремление своего коллеги исследовать жгучиеи трагические противоречия западного бытия и сознания, так и мучительную противоречивость и его личности и его творчества.
Творчество Пазолини со всей очевидностью показывает, как важна для талантливого художника целостная мировоззренческая позиция и как бывает затруднен его путь в тех случаях, когда он скован философскими постулатами, лишающими его возможности отчетливо видеть духовное освобождение человечества на путях реальной борьбы за освобождение — социальное и политическое. (анонс канала "Время: Далекое и близкое")
Доп. информация: запись со спутника (канал "Время: Далекое и близкое").
Качество: DVB
Формат: MPEG-PS
Видео кодек: MPEG2
Аудио кодек: MP2
Видео: MPEG Video 2, 720x576@768x576 (4:3), 25 fps, ~3691 kbps avg
Аудио: 48 kHz, MPEG Audio 2, 2 ch, ~192.00 kbps avg

MediaInfo

Полное имя : H:\My Torrents\[apreder]Via_Pasolini(2005)DVB.mpgФормат : MPEG-PSРазмер файла : 1,21 ГбайтПродолжительность : 13 ч.Режим общего битрейта : ПеременныйОбщий поток : 207 Кбит/сек
ВидеоИдентификатор : 224 (0xE0)Формат : MPEG VideoВерсия формата : Version 2Профиль формата : Main@MainПараметр BVOP формата : ДаПараметр матрицы формата : ВыборочнаяПараметр GOP формата : M=3, N=12Продолжительность : 44 м.Вид битрейта : ПеременныйБитрейт : 10,5 Кбит/секМаксимальный битрейт : 5000 Кбит/секШирина : 720 пикселейВысота : 576 пикселейСоотношение сторон : 4:3Частота кадров : 25,000 кадров/секСтандарт вещания : PALЦветовое пространство : YUVСубдискретизация насыщенности : 4:2:0Битовая глубина : 8 битТип развёртки : ЧересстрочнаяПорядок развёртки : Верхнее поле первоеМетод сжатия : С потерямиБит/(Пиксели*Кадры) : 0.001Размер потока : 3,35 Мбайт (0%)
АудиоИдентификатор : 192 (0xC0)Формат : MPEG AudioВерсия формата : Version 1Профиль формата : Layer 2Продолжительность : 13 ч.Вид битрейта : ПостоянныйБитрейт : 192 Кбит/секКаналы : 2 каналаЧастота : 48,0 КГцМетод сжатия : С потерямиЗадержка видео : -270 мс.Размер потока : 1,13 Гбайт (93%)

Скриншоты


Скриншоты анаморфированные


-295/277√
[teatrix.ru].t9237.torrent 
Торрент: Зарегистрирован [ 2015-10-18 20:31 ] · C18551F665B2F502B447C112395E362C5613A374

Скачать .torrent

Скачать

13 KB

Статус: проверено
Скачан: 0 раз
Размер: 1.21 GB
terms.php



Показать сообщения:    

Текущее время: 08-Дек 03:15

Часовой пояс: UTC + 3


Вы не можете начинать темы
Вы не можете отвечать на сообщения
Вы не можете редактировать свои сообщения
Вы не можете удалять свои сообщения
Вы не можете голосовать в опросах
Вы не можете прикреплять файлы к сообщениям
Вы можете скачивать файлы