Луи Маль / Louis Malle / Louis Malle in Camera / Louis Malle - Un cineaste francais (Пьер Филипп / Pierre Philippe, Пьер-Андре Бутан / Pierre-Andre Boutang, Дон Бойд / Don Boyd) [2002, документальный, биография, DVB] MVO (Кипарис)


Статистика раздачи [Обновить пиров]
Размер:  772 MB   |    Зарегистрирован:  1 год 1 месяц   |    Скачан:  0 раз

Полного источника не было: Никогда

 
   
 
 
 

[Цитировать]

Луи Маль
Louis Malle / Louis Malle in Camera / Louis Malle - Un cinéaste français- Год выпуска: 2002
Страна: Франция, Великобритания
Жанр: документальный, творческая биография
Продолжительность: 00:51:47
Перевод: Профессиональный (многоголосый, закадровый) (Студия "Кипарис" по заказу ГТРК "Культура")
Русские субтитры: нет
Режиссер: Пьер Филипп / Pierre Philippe, Пьер-Андре Бутан / Pierre-André Boutang, Дон Бойд / Don Boyd
Описание: 30 октября 2007 года исполнилось 75 лет со дня рождения режиссера, сценариста, оператора Луи Маля, представителя так называемой "новой волны" французского кинематографа.
В одном из интервью Луи Маль назвал те из своих фильмов, которые любит больше других: "Из ранних это, конечно, "Зази в метро" и "Время жить и время умирать". Из фильмов 70-х я выделил бы "Лакомб Люсьен". Хотя "Шум в сердце" мне нравится больше, но "Лакомб", наверное, значительнее. А из последнего десятилетия я назову "До свидания, дети". Судя по всему, мои фильмы отражают мои представления и мои настроения на каждом новом этапе. Я по-прежнему нахожусь под обаянием кинематографа. Проработав так долго, я обнаруживаю в кино все новые и новые возможности. И чем дольше я живу, тем меньше доверяю идеям, тем больше верю в чувства".
К 75-летию со дня рождения режиссера телеканал "Культура" представил документальный фильм "Луи Маль", в котором показаны отрывки из многих его картин, фрагменты интервью и воспоминания тех, кому посчастливилось с ним работать. Картина исследует связь биографии режиссера и его фильмов, которые во многом являются автобиографичными. (анонс канала "Культура")
Информация: http://www.imdb.com/title/tt0880929/
Доп. информация: запись со спутника (канал "Культура").
Качество: DVB
Формат: TS
Видео кодек: MPEG2
Аудио кодек: MP2
Видео: MPEG Video 2, 720x576@768x576 (4:3), 25 fps, ~1786 kbps avg
Аудио: 48 kHz, MPEG Audio 2, 2 ch, ~192.00 kbps avg

MediaInfo

Полное имя : H:\My Torrents\[apreder]Louis_Malle_in_Camera(2002)DVB.tsФормат : MPEG-TSРазмер файла : 772 МбайтПродолжительность : 51 м.Режим общего битрейта : ПеременныйОбщий поток : 2083 Кбит/сек
ВидеоИдентификатор : 224 (0xE0)Идентификатор меню : 258 (0x102)Формат : MPEG VideoВерсия формата : Version 2Профиль формата : Main@MainПараметр BVOP формата : ДаПараметр матрицы формата : ВыборочнаяПараметр GOP формата : M=3, N=12Идентификатор кодека : 2Продолжительность : 51 м.Вид битрейта : ПеременныйБитрейт : 1786 Кбит/секМаксимальный битрейт : 10000 Кбит/секШирина : 720 пикселейВысота : 576 пикселейСоотношение сторон : 4:3Частота кадров : 25,000 кадров/секСтандарт вещания : PALЦветовое пространство : YUVСубдискретизация насыщенности : 4:2:0Битовая глубина : 8 битТип развёртки : ЧересстрочнаяПорядок развёртки : Верхнее поле первоеМетод сжатия : С потерямиБит/(Пиксели*Кадры) : 0.172Размер потока : 662 Мбайт (86%)
АудиоИдентификатор : 192 (0xC0)Идентификатор меню : 258 (0x102)Формат : MPEG AudioВерсия формата : Version 1Профиль формата : Layer 2Идентификатор кодека : 3Продолжительность : 51 м.Вид битрейта : ПостоянныйБитрейт : 192 Кбит/секКаналы : 2 каналаЧастота : 48,0 КГцМетод сжатия : С потерямиЗадержка видео : -592 мс.Размер потока : 71,1 Мбайт (9%)Язык : GermanЯзык, дополнительно : Clean effects

Скриншоты


Скриншоты анаморфированные


-283/265√
[teatrix.ru].t9238.torrent 
Торрент: Зарегистрирован [ 2015-10-18 20:31 ] · CC8DA1E7570B2770D299012CF24FFF6A25CE7D23

Скачать .torrent

Скачать

16 KB

Статус: проверено
Скачан: 0 раз
Размер: 772 MB
terms.php



Показать сообщения:    

Текущее время: 11-Дек 09:06

Часовой пояс: UTC + 3


Вы не можете начинать темы
Вы не можете отвечать на сообщения
Вы не можете редактировать свои сообщения
Вы не можете удалять свои сообщения
Вы не можете голосовать в опросах
Вы не можете прикреплять файлы к сообщениям
Вы можете скачивать файлы