Анна Маньяни. Сила правды / Кино вне времени: Анна Маньяни. Сыграть правду / Cinema senza tempo: Anna Magnani, recitare la verita (Сандро Лаи / Sandro Lai) [2002, документальный, биография, DVB] DVO (Первый канал)


Статистика раздачи [Обновить пиров]
Размер:  1.76 GB   |    Зарегистрирован:  1 год 1 месяц   |    Скачан:  0 раз

Полного источника не было: Никогда

 
   
 
 
 

[Цитировать]

Анна Маньяни. Сила правды
Кино вне времени: Анна Маньяни. Сыграть правду

Cinema senza tempo: Anna Magnani, recitare la verita- Год выпуска: 2002
Страна: Италия
Жанр: документальный, биография
Продолжительность: 00:57:16
Перевод: Профессиональный (двухголосый) (по заказу ЗАО "Первый канал. Всемирная сеть")
Русские субтитры: нет
Режиссер: Сандро Лаи / Sandro Lai
Описание: Фильм об одной из самых ярких, а может быть, самой значительной женской фигуре в итальянском послевоенном кино. Анна Маньяни родилась в Риме в 1908 г., мать почти сразу после ее рождения уехала в Египет, отец неизвестен. Впоследствии Маньяни будет его разыскивать, но оставит всякие поиски, как только узнает, что его фамилия была Дель Дуче. "Я совсем не собиралась оказаться дочерью дуче!" — с присущей ей иронией скажет она впоследствии. Важнейшую роль в ее воспитании сыграла бабушка. В 15 лет она решает ехать на поиски матери в Египет, но проживет там всего лишь год, — это и послужит для некоторых биографов основанием считать, что актриса родилась в Египте. С 1940 по 1944 гг. она выступает в театрах-кабаре вместе со знаменитым итальянским комиком Тото, и это, по утверждению историков театра, были важнейшие страницы итальянской театральной эстрады. В 1941 г. Витторио Де Сика пригласил Маньяни на главную роль в фильме "Тереза-Пятница", где актриса впервые создала образ женщины из простонародья, привлекательный своей непосредственностью, темпераментом, искренностью чувств. Поворот в кинематографической судьбе Маньяни наступает в 1945 г., когда Роберто Росселлини и Серджо Амидеи решают вывести кино из закрытых студий, привести его к людям и говорить о людях. Начинается эпоха неореализма, и знаменитый фильм "Рим — открытый город", съемкам которого сопутствуют всевозможные трудности, становится первым крупным произведением этой новой кинематографической школы. После съемок и успеха картины Маньяни входит в кинематограф как актриса-символ новой школы. (анонс канала "Время: Далекое и близкое")
Участник 6th Thessaloniki Documentary Festival - Images of the 21st Century (2002).
Доп. информация: запись со спутника (канал "Время: Далекое и близкое"). В отличие от имеющегося на трекере TVRip в данной раздаче несжатый цифровой поток и другой перевод: в TVRip перевод студии "СВ-Дубль" по заказу ГТРК "Культура", в данной раздаче перевод по заказу ЗАО "Первый канал. Всемирная сеть".
Качество: DVB
Формат: TS
Видео кодек: MPEG2
Аудио кодек: MP2
Видео: MPEG Video 2, 720x576@768x576 (4:3), 25 fps, ~3984 kbps avg
Аудио: 48 kHz, MPEG Audio 2, 2 ch, ~192.00 kbps avg

MediaInfo

Полное имя : H:\My Torrents\[apreder]Anna_Magnani_recitare_la_verita(2002)DVB.tsФормат : MPEG-TSРазмер файла : 1,76 ГбайтПродолжительность : 57 м.Режим общего битрейта : ПеременныйОбщий поток : 4396 Кбит/сек
ВидеоИдентификатор : 224 (0xE0)Идентификатор меню : 258 (0x102)Формат : MPEG VideoВерсия формата : Version 2Профиль формата : Main@MainПараметр BVOP формата : ДаПараметр матрицы формата : ВыборочнаяПараметр GOP формата : M=3, N=12Идентификатор кодека : 2Продолжительность : 57 м.Вид битрейта : ПеременныйБитрейт : 3984 Кбит/секМаксимальный битрейт : 5000 Кбит/секШирина : 720 пикселейВысота : 576 пикселейСоотношение сторон : 4:3Частота кадров : 25,000 кадров/секСтандарт вещания : PALЦветовое пространство : YUVСубдискретизация насыщенности : 4:2:0Битовая глубина : 8 битТип развёртки : ЧересстрочнаяПорядок развёртки : Верхнее поле первоеМетод сжатия : С потерямиБит/(Пиксели*Кадры) : 0.384Размер потока : 1,59 Гбайт (91%)
АудиоИдентификатор : 192 (0xC0)Идентификатор меню : 258 (0x102)Формат : MPEG AudioВерсия формата : Version 1Профиль формата : Layer 2Идентификатор кодека : 3Продолжительность : 57 м.Вид битрейта : ПостоянныйБитрейт : 192 Кбит/секКаналы : 2 каналаЧастота : 48,0 КГцМетод сжатия : С потерямиЗадержка видео : -269 мс.Размер потока : 78,6 Мбайт (4%)Язык : GermanЯзык, дополнительно : Clean effects

Скриншоты


Скриншоты анаморфированные


-272/254√
[teatrix.ru].t9239.torrent 
Торрент: Зарегистрирован [ 2015-10-18 20:31 ] · 9656151F0559EADBD8968E61B33D1B0BB2FDB630

Скачать .torrent

Скачать

18 KB

Статус: проверено
Скачан: 0 раз
Размер: 1.76 GB
terms.php



Показать сообщения:    

Текущее время: 09-Дек 06:58

Часовой пояс: UTC + 3


Вы не можете начинать темы
Вы не можете отвечать на сообщения
Вы не можете редактировать свои сообщения
Вы не можете удалять свои сообщения
Вы не можете голосовать в опросах
Вы не можете прикреплять файлы к сообщениям
Вы можете скачивать файлы