Закрытый показ. Райские птицы (20.04.2012) [2012, ТВ-дискуссия, DVB]


Статистика раздачи [Обновить пиров]
Размер:  1.79 GB   |    Зарегистрирован:  1 год 1 месяц   |    Скачан:  0 раз

Полного источника не было: Никогда

 
   
 
 
 

[Цитировать]

Закрытый показ. Райские птицы (20.04.2012)
Год выпуска: 2012
Страна: Россия
Жанр: ТВ-дискуссия
Продолжительность: 57 м. 50 с
Автор и ведущий: Александр Гордон
Описание: Программа Александра Гордона "Закрытый показ" традиционно знакомит зрителей Первого канала с самыми громкими и неоднозначными картинами. В программе фильм режиссера Романа Балаяна "Райские птицы" .
Качество: DVB
Формат: MPG
Видео кодек: MPEG2
Аудио кодек: MP2
Видео: MPEG-2; 720x576 (16:9)@1024x576, 25.00fps, ~4100 Kbps
Аудио: 48 kHz, 2 ch, 192 kbps, mp2

Скриншоты

MI

Общее
Полное имя : E:\MPEG\Zakrytyj.pokaz_Raiskie.pticy.20.04.2012.DVB.Doc66.mpg
Формат : MPEG-PS
Размер файла : 1,79 Гбайт
Продолжительность : 57 м.
Режим общего битрейта : Переменный
Общий поток : 4440 Кбит/сек
Видео
Идентификатор : 224 (0xE0)
Формат : MPEG Video
Версия формата : Version 2
Профиль формата : Main@Main
Параметр BVOP формата : Да
Параметр матрицы формата : Выборочная
Параметр GOP формата : M=3, N=12
Продолжительность : 57 м.
Вид битрейта : Переменный
Битрейт : 4159 Кбит/сек
Максимальный битрейт : 15,0 Мбит/сек
Ширина : 720 пикселей
Высота : 576 пикселей
Соотношение сторон : 16:9
Частота кадров : 25,000 кадров/сек
Стандарт вещания : PAL
Цветовое пространство : YUV
Субдискретизация насыщенности : 4:2:0
Битовая глубина : 8 бит
Тип развёртки : Чересстрочная
Порядок развёртки : Верхнее поле первое
Метод сжатия : С потерями
Бит/(Пиксели*Кадры) : 0.401
Размер потока : 1,68 Гбайт (94%)
Аудио
Идентификатор : 192 (0xC0)
Формат : MPEG Audio
Версия формата : Version 1
Профиль формата : Layer 2
Продолжительность : 57 м.
Вид битрейта : Постоянный
Битрейт : 192 Кбит/сек
Каналы : 2 канала
Частота : 48,0 КГц
Метод сжатия : С потерями
Размер потока : 79,4 Мбайт (4%)
[teatrix.ru].t9241.torrent 
Торрент: Зарегистрирован [ 2015-10-18 20:31 ] · EF60B240FCDCD1DF00CA8A6B8F767977A3CBAC85

Скачать .torrent

Скачать

36 KB

Статус: проверено
Скачан: 0 раз
Размер: 1.79 GB
terms.php



Показать сообщения:    

Текущее время: 10-Дек 04:12

Часовой пояс: UTC + 3


Вы не можете начинать темы
Вы не можете отвечать на сообщения
Вы не можете редактировать свои сообщения
Вы не можете удалять свои сообщения
Вы не можете голосовать в опросах
Вы не можете прикреплять файлы к сообщениям
Вы можете скачивать файлы