(Classical) Ludwig van Beethoven (Бетховен)- Piano Sonatas Op.10 No.2, Op.26, Op.27 No.2 'Moonlight' - Лунная соната, Op.90 - Angela Hewitt - 2010, FLAC (image+.cue) lossless


 

[Цитировать]

Ludwig van Beethoven - Piano Sonatas Op.10 No.2, Op.26, Op.27 No.2 'Moonlight', Op.90 - Angela Hewitt
Жанр: Classical
Страна-производитель диска: UK
Год издания диска: 2010
Издатель (лейбл): Hyperion
Номер по каталогу: CDA67797
Дата записи: 2009
Аудиокодек: FLAC
Тип рипа: image+.cue
Битрейт аудио: lossless
Продолжительность: 63:54
Источник: собственный рип
Наличие сканов в содержимом раздачи: да
Треклист:
Ludwig van Beethoven
[1]-[9] Piano Sonata No.12 in A flat major, Op.26
[10]-[12] Piano Sonata No.6 in F major, Op.10 No.2
[13]-[14] Piano Sonata No.27 in E minor, Op.90
[15]-[17] Piano Sonata No.14 in C sharp minor, Op.27 No.2 'Moonlight'
Исполнители:
Angela Hewitt piano

Лог создания рипа

Exact Audio Copy V1.1 from 23. June 2015
EAC extraction logfile from 9. October 2015, 20:02
Angela Hewitt / Beethoven - Piano Sonatas Op.10 No.2, Op.26, Op.27 No.2, Op.90
Used drive : HL-DT-STDVDRAM GU70N Adapter: 1 ID: 0
Read mode : SecureUtilize accurate stream : YesDefeat audio cache : YesMake use of C2 pointers : No
Read offset correction : 48Overread into Lead-In and Lead-Out : NoFill up missing offset samples with silence : YesDelete leading and trailing silent blocks : NoNull samples used in CRC calculations : YesUsed interface : Native Win32 interface for Win NT & 2000
Used output format : User Defined EncoderSelected bitrate : 128 kBit/sQuality : HighAdd ID3 tag : NoCommand line compressor : C:\Program Files (x86)\Exact Audio Copy\Flac\flac.exeAdditional command line options : -V -8 -T "Date=%year%" -T "Genre=%genre%" %source%
TOC of the extracted CD
Track | Start | Length | Start sector | End sector --------------------------------------------------------- 1 | 0:00.00 | 1:12.69 | 0 | 5468 2 | 1:12.69 | 1:07.02 | 5469 | 10495 3 | 2:19.71 | 0:55.36 | 10496 | 14656 4 | 3:15.32 | 1:14.20 | 14657 | 20226 5 | 4:29.52 | 0:56.55 | 20227 | 24481 6 | 5:26.32 | 1:45.56 | 24482 | 32412 7 | 7:12.13 | 2:45.38 | 32413 | 44825 8 | 9:57.51 | 6:09.34 | 44826 | 72534 9 | 16:07.10 | 3:06.51 | 72535 | 86535 10 | 19:13.61 | 8:23.71 | 86536 | 124331 11 | 27:37.57 | 3:50.10 | 124332 | 141591 12 | 31:27.67 | 4:04.65 | 141592 | 159956 13 | 35:32.57 | 5:37.49 | 159957 | 185280 14 | 41:10.31 | 7:43.68 | 185281 | 220073 15 | 48:54.24 | 5:37.29 | 220074 | 245377 16 | 54:31.53 | 2:05.07 | 245378 | 254759 17 | 56:36.60 | 7:15.32 | 254760 | 287416
Range status and errors
Selected range
Filename C:\temp\CDA67797 - Beethoven - Piano Sonatas Op.10 No.2, Op.26, Op.27 No.2, Op.90 - Hewitt\Beethoven - Piano Sonatas Op.10 No.2, Op.26, Op.27 No.2, Op.90.wav
Peak level 100.0 % Extraction speed 5.3 X Range quality 100.0 % Test CRC 6F548D4D Copy CRC 6F548D4D Copy OK
No errors occurred
AccurateRip summary
Track 1 accurately ripped (confidence 9) [70DAE131] (AR v2)Track 2 accurately ripped (confidence 9) [5D8C3B06] (AR v2)Track 3 accurately ripped (confidence 9) [1450582A] (AR v2)Track 4 accurately ripped (confidence 9) [9318A226] (AR v2)Track 5 accurately ripped (confidence 9) [7BBA5560] (AR v2)Track 6 accurately ripped (confidence 9) [BF27F4D9] (AR v2)Track 7 accurately ripped (confidence 9) [2E6093BB] (AR v2)Track 8 accurately ripped (confidence 8) [03001949] (AR v2)Track 9 accurately ripped (confidence 8) [50D6A37D] (AR v2)Track 10 accurately ripped (confidence 8) [65584A3F] (AR v2)Track 11 accurately ripped (confidence 9) [07DD4A5C] (AR v2)Track 12 accurately ripped (confidence 8) [8D9E8CAE] (AR v2)Track 13 accurately ripped (confidence 9) [BE3051BF] (AR v2)Track 14 accurately ripped (confidence 9) [3D9C6EA9] (AR v2)Track 15 accurately ripped (confidence 9) [49B434C7] (AR v2)Track 16 accurately ripped (confidence 9) [08B8C7D6] (AR v2)Track 17 accurately ripped (confidence 9) [E402AD5B] (AR v2)
All tracks accurately ripped
End of status report
==== Log checksum B3526A53F458DC3A82E60627A6ABE8FB8A268044AC191DC7A28177C683F4FDEF ====



Показать сообщения:    

Текущее время: 08-Дек 23:06

Часовой пояс: UTC + 3


Вы не можете начинать темы
Вы не можете отвечать на сообщения
Вы не можете редактировать свои сообщения
Вы не можете удалять свои сообщения
Вы не можете голосовать в опросах
Вы не можете прикреплять файлы к сообщениям
Вы не можете скачивать файлы