(Classical) Aram Khachaturian / Арам Хачатурян - Solo Piano Works: Spartacus (Спартак), Variations, Dances, Recitative And Fugue, Sonatas... (Armen Babakhanian) - 2007, FLAC (tracks+.cue) lossless


 

[Цитировать]

Aram Khachaturian/Хачатурян - Solo Piano Works (Armen Babakhanian)
Жанр: Classical
Год издания диска: 2007
Издатель (лейбл): Hamazkayin
Номер по каталогу:
Дата записи:
Аудиокодек: FLAC
Тип рипа: tracks+.cue
Битрейт аудио: lossless
Продолжительность: 03:30:17
Источник: собственный рип
Наличие сканов в содержимом раздачи: да
Исполнители:
Aram Khachaturian
Armen Babakhanian - piano

Треклист:

CD1
01. Spartacus Symphonic. Introduction And Entrance Of Crassus (03:31)
02. Farewell Scene (Spartacus And Phrygia) (06:15)
03. Gladiators' Battle And Death Of A Gladiator (04:28)
04. The Appian Road (04:01)
05. Variations Of Aegina And Bacchanalia (03:02)
06. Entrance Of Spartacus, The Quarrel (04:12)
07. The Betrayal (06:08)
08. The Death Of Spartacus (06:10)
09. Requiem (07:35)
10. Little Suite From Spartacus. Dance Of Phrygia (04:56)
11. Dance Of Aegina (03:14)
12. Dance With Swords (01:48)
13. Victory Of Spartacus (02:45)
CD2
01. Valse-Caprice In C-Sharp Minor (1926) (02:43)
02. Toccata In E-Flat Minor (1932) (04:59)
03. Seven Recitatives And Fugues (1966). Recitative And Fugue No. 1 (07:14)
04. Recitative And Fugue No. 2 (05:14)
05. Recitative And Fugue No. 3 (06:58)
06. Recitative And Fugue No. 4 (07:02)
07. Recitative And Fugue No. 5 (03:07)
08. Recitative And Fugue No. 6 (10:52)
09. Recitative And Fugue No. 7 (05:22)
CD3
01. Dance In G Minor For Piano (1926) (01:48)
02. Poem In C-Sharp Minor For Piano (1927) (09:27)
Sonata In E-Flat Major (1961)
03. 1. Allegro Vivace (09:34)
04. 2. Andante Tranquillo (11:23)
05. 3. Allegro Assai (09:04)
06. Vocalise In C-Major For Piano (1978) (05:44)
CD4
01. Children's Album, Book I, For Piano (1947) - Andantino (02:45)
02. No Fun Time Today (00:52)
03. Liado Is Very Ill (03:28)
04. On Her Birthday (02:00)
05. Etude (01:27)
06. Musical Tableaux (03:05)
07. The Cavalry (01:13)
08. Invention (1942, From Gayane Ballet) (05:55)
09. In The Folk Style (01:59)
10. Fugue (01:50)
11. Children's Album, Book Ii, For Piano (1964-65) - Skipping Rope (00:31)
12. Eastern Dance (01:23)
13. The Kitten On The Swing (01:01)
14. Playing The Tambourine (01:34)
15. Two Funny Old Ladies Haggling (01:22)
16. Funeral Procession (04:36)
17. Rhythmic Gymnastics (01:11)
18. Toccatina (02:31)
19. Fugue (02:09)
Sonatina In C Major (1958)
20. 1. Allegro Giocoso (02:15)
21. 2. Andante Con Anima, Rubato (04:19)
22. 3. Allegro Mosso (04:15)

-

LOG EAC:CD1:

Exact Audio Copy V1.0 beta 3 from 29. August 2011
EAC extraction logfile from 24. July 2015, 23:34
Armen Babakhanian / Khachaturian. Solo Piano Works - CD1
Used drive : PIONEER DVD-RW DVR-221L Adapter: 2 ID: 0
Read mode : SecureUtilize accurate stream : YesDefeat audio cache : YesMake use of C2 pointers : No
Read offset correction : 6Overread into Lead-In and Lead-Out : NoFill up missing offset samples with silence : YesDelete leading and trailing silent blocks : NoNull samples used in CRC calculations : YesUsed interface : Installed external ASPI interfaceGap handling : Appended to previous track
Used output format : User Defined EncoderSelected bitrate : 768 kBit/sQuality : HighAdd ID3 tag : NoCommand line compressor : C:\Program Files\Exact Audio Copy\Flac\flac.exeAdditional command line options : -6 -V -T "ARTIST=%artist%" -T "TITLE=%title%" -T "ALBUM=%albumtitle%" -T "DATE=%year%" -T "TRACKNUMBER=%tracknr%" -T "GENRE=%genre%" -T "COMMENT=%comment%" -T "ALBUMARTIST=%albuminterpret%" -T "COMPOSER=%composer%" -T "DISCNUMBER=%cdnumber%" -T "TOTALDISCS=%totalcds%" -T "TOTALTRACKS=%numtracks%" %source% -o %dest%
TOC of the extracted CD
Track | Start | Length | Start sector | End sector --------------------------------------------------------- 1 | 0:00.00 | 3:31.18 | 0 | 15842 2 | 3:31.18 | 6:15.22 | 15843 | 43989 3 | 9:46.40 | 4:27.48 | 43990 | 64062 4 | 14:14.13 | 4:01.19 | 64063 | 82156 5 | 18:15.32 | 3:01.69 | 82157 | 95800 6 | 21:17.26 | 4:12.00 | 95801 | 114700 7 | 25:29.26 | 6:07.65 | 114701 | 142290 8 | 31:37.16 | 6:10.27 | 142291 | 170067 9 | 37:47.43 | 7:35.23 | 170068 | 204215 10 | 45:22.66 | 4:55.72 | 204216 | 226412 11 | 50:18.63 | 3:13.47 | 226413 | 240934 12 | 53:32.35 | 1:48.32 | 240935 | 249066 13 | 55:20.67 | 2:44.60 | 249067 | 261426
Track 1
Filename D:\EAC\01 - Spartacus Symphonic. Introduction And Entrance Of Crassus.wav
Pre-gap length 0:00:02.00
Peak level 86.4 % Extraction speed 1.7 X Track quality 100.0 % Test CRC C8893DCF Copy CRC C8893DCF Accurately ripped (confidence 1) [916E36D0] (AR v2) Copy OK
Track 2
Filename D:\EAC\02 - Farewell Scene (Spartacus And Phrygia).wav
Peak level 55.4 % Extraction speed 2.1 X Track quality 100.0 % Test CRC 501BE7E5 Copy CRC 501BE7E5 Accurately ripped (confidence 1) [FF21C885] (AR v2) Copy OK
Track 3
Filename D:\EAC\03 - Gladiators' Battle And Death Of A Gladiator.wav
Peak level 100.0 % Extraction speed 2.2 X Track quality 100.0 % Test CRC EEA13919 Copy CRC EEA13919 Accurately ripped (confidence 1) [2D742F6F] (AR v2) Copy OK
Track 4
Filename D:\EAC\04 - The Appian Road.wav
Peak level 60.3 % Extraction speed 2.3 X Track quality 100.0 % Test CRC 10599FA9 Copy CRC 10599FA9 Accurately ripped (confidence 1) [C432A088] (AR v2) Copy OK
Track 5
Filename D:\EAC\05 - Variations Of Aegina And Bacchanalia.wav
Peak level 77.4 % Extraction speed 1.7 X Track quality 99.9 % Test CRC D1FD1B63 Copy CRC D1FD1B63 Accurately ripped (confidence 1) [8570BBC4] (AR v2) Copy OK
Track 6
Filename D:\EAC\06 - Entrance Of Spartacus, The Quarrel.wav
Peak level 76.4 % Extraction speed 2.0 X Track quality 99.9 % Test CRC BEF824F9 Copy CRC BEF824F9 Accurately ripped (confidence 1) [1BC07F0F] (AR v2) Copy OK
Track 7
Filename D:\EAC\07 - The Betrayal.wav
Peak level 39.5 % Extraction speed 2.4 X Track quality 99.9 % Test CRC 67520F9E Copy CRC 67520F9E Accurately ripped (confidence 1) [4FC639B0] (AR v2) Copy OK
Track 8
Filename D:\EAC\08 - The Death Of Spartacus.wav
Peak level 97.4 % Extraction speed 3.1 X Track quality 100.0 % Test CRC 5FDBAE32 Copy CRC 5FDBAE32 Accurately ripped (confidence 1) [FD28EA95] (AR v2) Copy OK
Track 9
Filename D:\EAC\09 - Requiem.wav
Peak level 78.7 % Extraction speed 3.4 X Track quality 100.0 % Test CRC 946CB200 Copy CRC 946CB200 Accurately ripped (confidence 1) [C46B7238] (AR v2) Copy OK
Track 10
Filename D:\EAC\10 - Little Suite From Spartacus. Dance Of Phrygia.wav
Peak level 57.4 % Extraction speed 3.4 X Track quality 100.0 % Test CRC 7BA6465A Copy CRC 7BA6465A Accurately ripped (confidence 1) [80B508DC] (AR v2) Copy OK
Track 11
Filename D:\EAC\11 - Dance Of Aegina.wav
Peak level 46.5 % Extraction speed 3.3 X Track quality 100.0 % Test CRC 60C4FE42 Copy CRC 60C4FE42 Accurately ripped (confidence 1) [C06B93DD] (AR v2) Copy OK
Track 12
Filename D:\EAC\12 - Dance With Swords.wav
Peak level 73.0 % Extraction speed 2.9 X Track quality 100.0 % Test CRC 9CFA3B25 Copy CRC 9CFA3B25 Accurately ripped (confidence 1) [F34AC91C] (AR v2) Copy OK
Track 13
Filename D:\EAC\13 - Victory Of Spartacus.wav
Peak level 98.9 % Extraction speed 3.4 X Track quality 100.0 % Test CRC 1A0D7562 Copy CRC 1A0D7562 Accurately ripped (confidence 1) [B5BD06DE] (AR v2) Copy OK
All tracks accurately ripped
No errors occurred
End of status report
==== Log checksum 8AD9B2F3B1D2EB392285C9BC50D260BD0E89364978EC38C5BC645203A3E9C5BD ====

CD2:

Exact Audio Copy V1.0 beta 3 from 29. August 2011
EAC extraction logfile from 25. July 2015, 7:59
Armen Babakhanian / Khachaturian. Solo Piano Works - CD2
Used drive : PIONEER DVD-RW DVR-221L Adapter: 2 ID: 0
Read mode : SecureUtilize accurate stream : YesDefeat audio cache : YesMake use of C2 pointers : No
Read offset correction : 6Overread into Lead-In and Lead-Out : NoFill up missing offset samples with silence : YesDelete leading and trailing silent blocks : NoNull samples used in CRC calculations : YesUsed interface : Installed external ASPI interfaceGap handling : Appended to previous track
Used output format : User Defined EncoderSelected bitrate : 768 kBit/sQuality : HighAdd ID3 tag : NoCommand line compressor : C:\Program Files\Exact Audio Copy\Flac\flac.exeAdditional command line options : -6 -V -T "ARTIST=%artist%" -T "TITLE=%title%" -T "ALBUM=%albumtitle%" -T "DATE=%year%" -T "TRACKNUMBER=%tracknr%" -T "GENRE=%genre%" -T "COMMENT=%comment%" -T "ALBUMARTIST=%albuminterpret%" -T "COMPOSER=%composer%" -T "DISCNUMBER=%cdnumber%" -T "TOTALDISCS=%totalcds%" -T "TOTALTRACKS=%numtracks%" %source% -o %dest%
TOC of the extracted CD
Track | Start | Length | Start sector | End sector --------------------------------------------------------- 1 | 0:00.00 | 2:43.37 | 0 | 12261 2 | 2:43.37 | 4:59.20 | 12262 | 34706 3 | 7:42.57 | 7:14.18 | 34707 | 67274 4 | 14:57.00 | 5:13.71 | 67275 | 90820 5 | 20:10.71 | 6:58.33 | 90821 | 122203 6 | 27:09.29 | 7:01.55 | 122204 | 153833 7 | 34:11.09 | 3:07.25 | 153834 | 167883 8 | 37:18.34 | 10:52.24 | 167884 | 216807 9 | 48:10.58 | 5:21.38 | 216808 | 240920
Track 1
Filename D:\EAC\01 - Valse-Caprice In C-Sharp Minor (1926).wav
Pre-gap length 0:00:02.00
Peak level 37.4 % Extraction speed 1.4 X Track quality 100.0 % Test CRC 582B8997 Copy CRC 582B8997 Accurately ripped (confidence 1) [E7D20D17] (AR v2) Copy OK
Track 2
Filename D:\EAC\02 - Toccata In E-Flat Minor (1932).wav
Peak level 81.5 % Extraction speed 1.9 X Track quality 100.0 % Test CRC 5F4B112A Copy CRC 5F4B112A Accurately ripped (confidence 1) [D3F28DB4] (AR v2) Copy OK
Track 3
Filename D:\EAC\03 - Seven Recitatives And Fugues (1966). Recitative And Fugue No. 1.wav
Peak level 41.7 % Extraction speed 2.0 X Track quality 99.9 % Test CRC 565F4F14 Copy CRC 565F4F14 Accurately ripped (confidence 1) [042522F0] (AR v2) Copy OK
Track 4
Filename D:\EAC\04 - Recitative And Fugue No. 2.wav
Peak level 32.2 % Extraction speed 2.5 X Track quality 100.0 % Test CRC A6755E83 Copy CRC A6755E83 Accurately ripped (confidence 1) [69C3774D] (AR v2) Copy OK
Track 5
Filename D:\EAC\05 - Recitative And Fugue No. 3.wav
Peak level 40.8 % Extraction speed 2.8 X Track quality 100.0 % Test CRC 67F51A95 Copy CRC 67F51A95 Accurately ripped (confidence 1) [C2FF320F] (AR v2) Copy OK
Track 6
Filename D:\EAC\06 - Recitative And Fugue No. 4.wav
Peak level 57.2 % Extraction speed 3.0 X Track quality 100.0 % Test CRC 642631E8 Copy CRC 642631E8 Accurately ripped (confidence 1) [E035A305] (AR v2) Copy OK
Track 7
Filename D:\EAC\07 - Recitative And Fugue No. 5.wav
Peak level 32.6 % Extraction speed 2.9 X Track quality 100.0 % Test CRC 1A909BBD Copy CRC 1A909BBD Accurately ripped (confidence 1) [64C2146E] (AR v2) Copy OK
Track 8
Filename D:\EAC\08 - Recitative And Fugue No. 6.wav
Peak level 70.9 % Extraction speed 3.5 X Track quality 100.0 % Test CRC EB393125 Copy CRC EB393125 Accurately ripped (confidence 1) [1CD7B007] (AR v2) Copy OK
Track 9
Filename D:\EAC\09 - Recitative And Fugue No. 7.wav
Peak level 29.1 % Extraction speed 3.6 X Track quality 100.0 % Test CRC 8432E706 Copy CRC 8432E706 Accurately ripped (confidence 1) [CB800D6C] (AR v2) Copy OK
All tracks accurately ripped
No errors occurred
End of status report
==== Log checksum DE75EC2A564BF3E1CE23F05CF95D24544EB5169DF18DBA3CAC6995521BF24E3E ====

CD3:

Exact Audio Copy V1.0 beta 3 from 29. August 2011
EAC extraction logfile from 25. July 2015, 8:44
Armen Babakhanian / Khachaturian. Solo Piano Works - CD3
Used drive : PIONEER DVD-RW DVR-221L Adapter: 2 ID: 0
Read mode : SecureUtilize accurate stream : YesDefeat audio cache : YesMake use of C2 pointers : No
Read offset correction : 6Overread into Lead-In and Lead-Out : NoFill up missing offset samples with silence : YesDelete leading and trailing silent blocks : NoNull samples used in CRC calculations : YesUsed interface : Installed external ASPI interfaceGap handling : Appended to previous track
Used output format : User Defined EncoderSelected bitrate : 768 kBit/sQuality : HighAdd ID3 tag : NoCommand line compressor : C:\Program Files\Exact Audio Copy\Flac\flac.exeAdditional command line options : -6 -V -T "ARTIST=%artist%" -T "TITLE=%title%" -T "ALBUM=%albumtitle%" -T "DATE=%year%" -T "TRACKNUMBER=%tracknr%" -T "GENRE=%genre%" -T "COMMENT=%comment%" -T "ALBUMARTIST=%albuminterpret%" -T "COMPOSER=%composer%" -T "DISCNUMBER=%cdnumber%" -T "TOTALDISCS=%totalcds%" -T "TOTALTRACKS=%numtracks%" %source% -o %dest%
TOC of the extracted CD
Track | Start | Length | Start sector | End sector --------------------------------------------------------- 1 | 0:00.00 | 1:48.32 | 0 | 8131 2 | 1:48.32 | 9:26.43 | 8132 | 50624 3 | 11:15.00 | 9:34.23 | 50625 | 93697 4 | 20:49.23 | 11:23.17 | 93698 | 144939 5 | 32:12.40 | 9:04.27 | 144940 | 185766 6 | 41:16.67 | 5:44.09 | 185767 | 211575
Track 1
Filename D:\EAC\01 - Dance In G Minor For Piano (1926).wav
Pre-gap length 0:00:02.00
Peak level 39.1 % Extraction speed 1.4 X Track quality 100.0 % Test CRC 7A42884D Copy CRC 7A42884D Accurately ripped (confidence 1) [EC9563A5] (AR v2) Copy OK
Track 2
Filename D:\EAC\02 - Poem In C-Sharp Minor For Piano (1927).wav
Peak level 66.6 % Extraction speed 2.1 X Track quality 100.0 % Test CRC 894265DD Copy CRC 894265DD Accurately ripped (confidence 1) [94DC3AA8] (AR v2) Copy OK
Track 3
Filename D:\EAC\03 - Sonata In E-Flat Major (1961) - 1. Allegro Vivace.wav
Peak level 76.3 % Extraction speed 2.5 X Track quality 100.0 % Test CRC 519A31A8 Copy CRC 519A31A8 Accurately ripped (confidence 1) [4DAC6F62] (AR v2) Copy OK
Track 4
Filename D:\EAC\04 - 2. Andante Tranquillo.wav
Peak level 79.8 % Extraction speed 2.7 X Track quality 99.9 % Test CRC 03644598 Copy CRC 03644598 Accurately ripped (confidence 1) [866488C3] (AR v2) Copy OK
Track 5
Filename D:\EAC\05 - 3. Allegro Assai.wav
Peak level 83.1 % Extraction speed 3.3 X Track quality 100.0 % Test CRC 7C8A1DFA Copy CRC 7C8A1DFA Accurately ripped (confidence 1) [8D7F1906] (AR v2) Copy OK
Track 6
Filename D:\EAC\06 - Vocalise In C-Major For Piano (1978).wav
Peak level 42.4 % Extraction speed 3.4 X Track quality 100.0 % Test CRC 6ABE541E Copy CRC 6ABE541E Accurately ripped (confidence 1) [D0CD2F4C] (AR v2) Copy OK
All tracks accurately ripped
No errors occurred
End of status report
==== Log checksum 9650911DB127FE3ABE497FF7623894EB753F9452E3E4D7E1B3BF7347B39F6CC1 ====

CD4:

Exact Audio Copy V1.0 beta 3 from 29. August 2011
EAC extraction logfile from 25. July 2015, 9:28
Armen Babakhanian / Khachaturian. Solo Piano Works - CD4
Used drive : PIONEER DVD-RW DVR-221L Adapter: 2 ID: 0
Read mode : SecureUtilize accurate stream : YesDefeat audio cache : YesMake use of C2 pointers : No
Read offset correction : 6Overread into Lead-In and Lead-Out : NoFill up missing offset samples with silence : YesDelete leading and trailing silent blocks : NoNull samples used in CRC calculations : YesUsed interface : Installed external ASPI interfaceGap handling : Appended to previous track
Used output format : User Defined EncoderSelected bitrate : 768 kBit/sQuality : HighAdd ID3 tag : NoCommand line compressor : C:\Program Files\Exact Audio Copy\Flac\flac.exeAdditional command line options : -6 -V -T "ARTIST=%artist%" -T "TITLE=%title%" -T "ALBUM=%albumtitle%" -T "DATE=%year%" -T "TRACKNUMBER=%tracknr%" -T "GENRE=%genre%" -T "COMMENT=%comment%" -T "ALBUMARTIST=%albuminterpret%" -T "COMPOSER=%composer%" -T "DISCNUMBER=%cdnumber%" -T "TOTALDISCS=%totalcds%" -T "TOTALTRACKS=%numtracks%" %source% -o %dest%
TOC of the extracted CD
Track | Start | Length | Start sector | End sector --------------------------------------------------------- 1 | 0:00.00 | 2:44.49 | 0 | 12348 2 | 2:44.49 | 0:51.73 | 12349 | 16246 3 | 3:36.47 | 3:28.21 | 16247 | 31867 4 | 7:04.68 | 2:00.07 | 31868 | 40874 5 | 9:05.00 | 1:27.01 | 40875 | 47400 6 | 10:32.01 | 3:04.64 | 47401 | 61264 7 | 13:36.65 | 1:12.61 | 61265 | 66725 8 | 14:49.51 | 5:55.02 | 66726 | 93352 9 | 20:44.53 | 1:59.25 | 93353 | 102302 10 | 22:44.03 | 1:49.55 | 102303 | 110532 11 | 24:33.58 | 0:31.20 | 110533 | 112877 12 | 25:05.03 | 1:23.27 | 112878 | 119129 13 | 26:28.30 | 1:00.63 | 119130 | 123692 14 | 27:29.18 | 1:34.04 | 123693 | 130746 15 | 29:03.22 | 1:22.33 | 130747 | 136929 16 | 30:25.55 | 4:35.72 | 136930 | 157626 17 | 35:01.52 | 1:11.32 | 157627 | 162983 18 | 36:13.09 | 2:31.21 | 162984 | 174329 19 | 38:44.30 | 2:09.17 | 174330 | 184021 20 | 40:53.47 | 2:15.07 | 184022 | 194153 21 | 43:08.54 | 4:19.08 | 194154 | 213586 22 | 47:27.62 | 4:14.56 | 213587 | 232692
Track 1
Filename D:\EAC\01 - Children's Album, Book I, For Piano (1947) - Andantino.wav
Pre-gap length 0:00:02.00
Peak level 4.9 % Extraction speed 1.4 X Track quality 99.9 % Test CRC 068BF294 Copy CRC 068BF294 Accurately ripped (confidence 1) [B29C99C8] (AR v2) Copy OK
Track 2
Filename D:\EAC\02 - No Fun Time Today.wav
Peak level 15.5 % Extraction speed 1.8 X Track quality 100.0 % Test CRC 7BE8D44A Copy CRC 7BE8D44A Accurately ripped (confidence 1) [6669C2D2] (AR v2) Copy OK
Track 3
Filename D:\EAC\03 - Liado Is Very Ill.wav
Peak level 16.7 % Extraction speed 2.8 X Track quality 100.0 % Test CRC ED58C3A6 Copy CRC ED58C3A6 Accurately ripped (confidence 1) [9DBEEA38] (AR v2) Copy OK
Track 4
Filename D:\EAC\04 - On Her Birthday.wav
Peak level 24.9 % Extraction speed 2.6 X Track quality 100.0 % Test CRC 2420BF31 Copy CRC 2420BF31 Accurately ripped (confidence 1) [C789F681] (AR v2) Copy OK
Track 5
Filename D:\EAC\05 - Etude.wav
Peak level 32.0 % Extraction speed 2.5 X Track quality 100.0 % Test CRC 59DF6A45 Copy CRC 59DF6A45 Accurately ripped (confidence 1) [333945AD] (AR v2) Copy OK
Track 6
Filename D:\EAC\06 - Musical Tableaux.wav
Peak level 21.9 % Extraction speed 3.2 X Track quality 100.0 % Test CRC C8ED0957 Copy CRC C8ED0957 Accurately ripped (confidence 1) [0D92F396] (AR v2) Copy OK
Track 7
Filename D:\EAC\07 - The Cavalry.wav
Peak level 34.1 % Extraction speed 2.6 X Track quality 100.0 % Test CRC F9F85E73 Copy CRC F9F85E73 Accurately ripped (confidence 1) [42999216] (AR v2) Copy OK
Track 8
Filename D:\EAC\08 - Invention (1942, From Gayane Ballet).wav
Peak level 11.6 % Extraction speed 3.8 X Track quality 100.0 % Test CRC 0C4C9DA3 Copy CRC 0C4C9DA3 Accurately ripped (confidence 1) [24DE7EFD] (AR v2) Copy OK
Track 9
Filename D:\EAC\09 - In The Folk Style.wav
Peak level 33.5 % Extraction speed 3.4 X Track quality 100.0 % Test CRC 7CD955BB Copy CRC 7CD955BB Accurately ripped (confidence 1) [6B71C0E3] (AR v2) Copy OK
Track 10
Filename D:\EAC\10 - Fugue.wav
Peak level 31.4 % Extraction speed 3.4 X Track quality 100.0 % Test CRC 9E83A415 Copy CRC 9E83A415 Accurately ripped (confidence 1) [17D66AEE] (AR v2) Copy OK
Track 11
Filename D:\EAC\11 - Children's Album, Book Ii, For Piano (1964-65) - Skipping Rope.wav
Peak level 21.8 % Extraction speed 2.1 X Track quality 100.0 % Test CRC 6626F50B Copy CRC 6626F50B Accurately ripped (confidence 1) [946A4C52] (AR v2) Copy OK
Track 12
Filename D:\EAC\12 - Eastern Dance.wav
Peak level 42.4 % Extraction speed 3.2 X Track quality 100.0 % Test CRC 40A83295 Copy CRC 40A83295 Accurately ripped (confidence 1) [4FBFB92E] (AR v2) Copy OK
Track 13
Filename D:\EAC\13 - The Kitten On The Swing.wav
Peak level 36.7 % Extraction speed 2.9 X Track quality 100.0 % Test CRC F6F57D47 Copy CRC F6F57D47 Accurately ripped (confidence 1) [5C9BD060] (AR v2) Copy OK
Track 14
Filename D:\EAC\14 - Playing The Tambourine.wav
Peak level 51.1 % Extraction speed 3.4 X Track quality 100.0 % Test CRC 7D591531 Copy CRC 7D591531 Accurately ripped (confidence 1) [2C89522E] (AR v2) Copy OK
Track 15
Filename D:\EAC\15 - Two Funny Old Ladies Haggling.wav
Peak level 67.6 % Extraction speed 3.3 X Track quality 100.0 % Test CRC A9ADD9AB Copy CRC A9ADD9AB Accurately ripped (confidence 1) [40E52418] (AR v2) Copy OK
Track 16
Filename D:\EAC\16 - Funeral Procession.wav
Peak level 78.6 % Extraction speed 4.5 X Track quality 100.0 % Test CRC 5174E03D Copy CRC 5174E03D Accurately ripped (confidence 1) [8BA2D744] (AR v2) Copy OK
Track 17
Filename D:\EAC\17 - Rhythmic Gymnastics.wav
Peak level 45.6 % Extraction speed 3.4 X Track quality 100.0 % Test CRC B97893B4 Copy CRC B97893B4 Accurately ripped (confidence 1) [D168C910] (AR v2) Copy OK
Track 18
Filename D:\EAC\18 - Toccatina.wav
Peak level 79.4 % Extraction speed 4.2 X Track quality 100.0 % Test CRC AEAD5227 Copy CRC AEAD5227 Accurately ripped (confidence 1) [C337A7AC] (AR v2) Copy OK
Track 19
Filename D:\EAC\19 - Fugue.wav
Peak level 32.2 % Extraction speed 4.2 X Track quality 100.0 % Test CRC 86F44B4C Copy CRC 86F44B4C Accurately ripped (confidence 1) [7280BB6E] (AR v2) Copy OK
Track 20
Filename D:\EAC\20 - Sonatina In C Major (1958) - 1. Allegro Giocoso.wav
Peak level 61.8 % Extraction speed 2.2 X Track quality 99.9 % Test CRC 94B61F42 Copy CRC 94B61F42 Accurately ripped (confidence 1) [2D190DA3] (AR v2) Copy OK
Track 21
Filename D:\EAC\21 - 2. Andante Con Anima, Rubato.wav
Peak level 18.4 % Extraction speed 5.0 X Track quality 100.0 % Test CRC 6F99CAB0 Copy CRC 6F99CAB0 Accurately ripped (confidence 1) [DE7A3C08] (AR v2) Copy OK
Track 22
Filename D:\EAC\22 - 3. Allegro Mosso.wav
Peak level 47.0 % Extraction speed 5.1 X Track quality 100.0 % Test CRC 09795FFB Copy CRC 09795FFB Accurately ripped (confidence 1) [CDF9B9B0] (AR v2) Copy OK
All tracks accurately ripped
No errors occurred
End of status report
==== Log checksum 3DCE446D74A3587F5AF60298D3B3CB0DB60F04C1648F96A37107DA4D31DCFEE0 ====

LOG (.CUE):CD1:

REM GENRE ClassicalREM DATE 2007REM DISCID B40D9D0DREM COMMENT "ExactAudioCopy v1.0b3"PERFORMER "Armen Babakhanian"TITLE "Khachaturian. Solo Piano Works - CD1"FILE "01 - Spartacus Symphonic. Introduction And Entrance Of Crassus.wav" WAVE TRACK 01 AUDIO TITLE "Spartacus Symphonic. Introduction And Entrance Of Crassus" PERFORMER "Armen Babakhanian" FLAGS DCP INDEX 01 00:00:00FILE "02 - Farewell Scene (Spartacus And Phrygia).wav" WAVE TRACK 02 AUDIO TITLE "Farewell Scene (Spartacus And Phrygia)" PERFORMER "Armen Babakhanian" FLAGS DCP INDEX 01 00:00:00FILE "03 - Gladiators' Battle And Death Of A Gladiator.wav" WAVE TRACK 03 AUDIO TITLE "Gladiators' Battle And Death Of A Gladiator" PERFORMER "Armen Babakhanian" FLAGS DCP INDEX 01 00:00:00FILE "04 - The Appian Road.wav" WAVE TRACK 04 AUDIO TITLE "The Appian Road" PERFORMER "Armen Babakhanian" FLAGS DCP INDEX 01 00:00:00FILE "05 - Variations Of Aegina And Bacchanalia.wav" WAVE TRACK 05 AUDIO TITLE "Variations Of Aegina And Bacchanalia" PERFORMER "Armen Babakhanian" FLAGS DCP INDEX 01 00:00:00FILE "06 - Entrance Of Spartacus, The Quarrel.wav" WAVE TRACK 06 AUDIO TITLE "Entrance Of Spartacus, The Quarrel" PERFORMER "Armen Babakhanian" FLAGS DCP INDEX 01 00:00:00FILE "07 - The Betrayal.wav" WAVE TRACK 07 AUDIO TITLE "The Betrayal" PERFORMER "Armen Babakhanian" FLAGS DCP INDEX 01 00:00:00FILE "08 - The Death Of Spartacus.wav" WAVE TRACK 08 AUDIO TITLE "The Death Of Spartacus" PERFORMER "Armen Babakhanian" FLAGS DCP INDEX 01 00:00:00FILE "09 - Requiem.wav" WAVE TRACK 09 AUDIO TITLE "Requiem" PERFORMER "Armen Babakhanian" FLAGS DCP INDEX 01 00:00:00FILE "10 - Little Suite From Spartacus. Dance Of Phrygia.wav" WAVE TRACK 10 AUDIO TITLE "Little Suite From Spartacus. Dance Of Phrygia" PERFORMER "Armen Babakhanian" FLAGS DCP INDEX 01 00:00:00FILE "11 - Dance Of Aegina.wav" WAVE TRACK 11 AUDIO TITLE "Dance Of Aegina" PERFORMER "Armen Babakhanian" FLAGS DCP INDEX 01 00:00:00FILE "12 - Dance With Swords.wav" WAVE TRACK 12 AUDIO TITLE "Dance With Swords" PERFORMER "Armen Babakhanian" FLAGS DCP INDEX 01 00:00:00FILE "13 - Victory Of Spartacus.wav" WAVE TRACK 13 AUDIO TITLE "Victory Of Spartacus" PERFORMER "Armen Babakhanian" FLAGS DCP INDEX 01 00:00:00

CD2:

REM GENRE ClassicalREM DATE 2007REM DISCID 6E0C8C09REM COMMENT "ExactAudioCopy v1.0b3"PERFORMER "Armen Babakhanian"TITLE "Khachaturian. Solo Piano Works - CD2"FILE "01 - Valse-Caprice In C-Sharp Minor (1926).wav" WAVE TRACK 01 AUDIO TITLE "Valse-Caprice In C-Sharp Minor (1926)" PERFORMER "Armen Babakhanian" FLAGS DCP INDEX 01 00:00:00FILE "02 - Toccata In E-Flat Minor (1932).wav" WAVE TRACK 02 AUDIO TITLE "Toccata In E-Flat Minor (1932)" PERFORMER "Armen Babakhanian" FLAGS DCP INDEX 01 00:00:00FILE "03 - Seven Recitatives And Fugues (1966). Recitative And Fugue No. 1.wav" WAVE TRACK 03 AUDIO TITLE "Seven Recitatives And Fugues (1966). Recitative And Fugue No. 1" PERFORMER "Armen Babakhanian" FLAGS DCP INDEX 01 00:00:00FILE "04 - Recitative And Fugue No. 2.wav" WAVE TRACK 04 AUDIO TITLE "Recitative And Fugue No. 2" PERFORMER "Armen Babakhanian" FLAGS DCP INDEX 01 00:00:00FILE "05 - Recitative And Fugue No. 3.wav" WAVE TRACK 05 AUDIO TITLE "Recitative And Fugue No. 3" PERFORMER "Armen Babakhanian" FLAGS DCP INDEX 01 00:00:00FILE "06 - Recitative And Fugue No. 4.wav" WAVE TRACK 06 AUDIO TITLE "Recitative And Fugue No. 4" PERFORMER "Armen Babakhanian" FLAGS DCP INDEX 01 00:00:00FILE "07 - Recitative And Fugue No. 5.wav" WAVE TRACK 07 AUDIO TITLE "Recitative And Fugue No. 5" PERFORMER "Armen Babakhanian" FLAGS DCP INDEX 01 00:00:00FILE "08 - Recitative And Fugue No. 6.wav" WAVE TRACK 08 AUDIO TITLE "Recitative And Fugue No. 6" PERFORMER "Armen Babakhanian" FLAGS DCP INDEX 01 00:00:00FILE "09 - Recitative And Fugue No. 7.wav" WAVE TRACK 09 AUDIO TITLE "Recitative And Fugue No. 7" PERFORMER "Armen Babakhanian" FLAGS DCP INDEX 01 00:00:00

CD3:

REM GENRE ClassicalREM DATE 2007REM DISCID 470B0506REM COMMENT "ExactAudioCopy v1.0b3"PERFORMER "Armen Babakhanian"TITLE "Khachaturian. Solo Piano Works - CD3"FILE "01 - Dance In G Minor For Piano (1926).wav" WAVE TRACK 01 AUDIO TITLE "Dance In G Minor For Piano (1926)" PERFORMER "Armen Babakhanian" FLAGS DCP INDEX 01 00:00:00FILE "02 - Poem In C-Sharp Minor For Piano (1927).wav" WAVE TRACK 02 AUDIO TITLE "Poem In C-Sharp Minor For Piano (1927)" PERFORMER "Armen Babakhanian" FLAGS DCP INDEX 01 00:00:00FILE "03 - Sonata In E-Flat Major (1961) - 1. Allegro Vivace.wav" WAVE TRACK 03 AUDIO TITLE "Sonata In E-Flat Major (1961) - 1. Allegro Vivace" PERFORMER "Armen Babakhanian" FLAGS DCP INDEX 01 00:00:00FILE "04 - 2. Andante Tranquillo.wav" WAVE TRACK 04 AUDIO TITLE "2. Andante Tranquillo" PERFORMER "Armen Babakhanian" FLAGS DCP INDEX 01 00:00:00FILE "05 - 3. Allegro Assai.wav" WAVE TRACK 05 AUDIO TITLE "3. Allegro Assai" PERFORMER "Armen Babakhanian" FLAGS DCP INDEX 01 00:00:00FILE "06 - Vocalise In C-Major For Piano (1978).wav" WAVE TRACK 06 AUDIO TITLE "Vocalise In C-Major For Piano (1978)" PERFORMER "Armen Babakhanian" FLAGS DCP INDEX 01 00:00:00

CD4:

REM GENRE ClassicalREM DATE 2007REM DISCID 3A0C1E16REM COMMENT "ExactAudioCopy v1.0b3"PERFORMER "Armen Babakhanian"TITLE "Khachaturian. Solo Piano Works - CD4"FILE "01 - Children's Album, Book I, For Piano (1947) - Andantino.wav" WAVE TRACK 01 AUDIO TITLE "Children's Album, Book I, For Piano (1947) - Andantino" PERFORMER "Armen Babakhanian" FLAGS DCP INDEX 01 00:00:00FILE "02 - No Fun Time Today.wav" WAVE TRACK 02 AUDIO TITLE "No Fun Time Today" PERFORMER "Armen Babakhanian" FLAGS DCP INDEX 01 00:00:00FILE "03 - Liado Is Very Ill.wav" WAVE TRACK 03 AUDIO TITLE "Liado Is Very Ill" PERFORMER "Armen Babakhanian" FLAGS DCP INDEX 01 00:00:00FILE "04 - On Her Birthday.wav" WAVE TRACK 04 AUDIO TITLE "On Her Birthday" PERFORMER "Armen Babakhanian" FLAGS DCP INDEX 01 00:00:00FILE "05 - Etude.wav" WAVE TRACK 05 AUDIO TITLE "Etude" PERFORMER "Armen Babakhanian" FLAGS DCP INDEX 01 00:00:00FILE "06 - Musical Tableaux.wav" WAVE TRACK 06 AUDIO TITLE "Musical Tableaux" PERFORMER "Armen Babakhanian" FLAGS DCP INDEX 01 00:00:00FILE "07 - The Cavalry.wav" WAVE TRACK 07 AUDIO TITLE "The Cavalry" PERFORMER "Armen Babakhanian" FLAGS DCP INDEX 01 00:00:00FILE "08 - Invention (1942, From Gayane Ballet).wav" WAVE TRACK 08 AUDIO TITLE "Invention (1942, From Gayane Ballet)" PERFORMER "Armen Babakhanian" FLAGS DCP INDEX 01 00:00:00FILE "09 - In The Folk Style.wav" WAVE TRACK 09 AUDIO TITLE "In The Folk Style" PERFORMER "Armen Babakhanian" FLAGS DCP INDEX 01 00:00:00FILE "10 - Fugue.wav" WAVE TRACK 10 AUDIO TITLE "Fugue" PERFORMER "Armen Babakhanian" FLAGS DCP INDEX 01 00:00:00FILE "11 - Children's Album, Book Ii, For Piano (1964-65) - Skipping Rope.wav" WAVE TRACK 11 AUDIO TITLE "Children's Album, Book Ii, For Piano (1964-65) - Skipping Rope" PERFORMER "Armen Babakhanian" FLAGS DCP INDEX 01 00:00:00FILE "12 - Eastern Dance.wav" WAVE TRACK 12 AUDIO TITLE "Eastern Dance" PERFORMER "Armen Babakhanian" FLAGS DCP INDEX 01 00:00:00FILE "13 - The Kitten On The Swing.wav" WAVE TRACK 13 AUDIO TITLE "The Kitten On The Swing" PERFORMER "Armen Babakhanian" FLAGS DCP INDEX 01 00:00:00FILE "14 - Playing The Tambourine.wav" WAVE TRACK 14 AUDIO TITLE "Playing The Tambourine" PERFORMER "Armen Babakhanian" FLAGS DCP INDEX 01 00:00:00FILE "15 - Two Funny Old Ladies Haggling.wav" WAVE TRACK 15 AUDIO TITLE "Two Funny Old Ladies Haggling" PERFORMER "Armen Babakhanian" FLAGS DCP INDEX 01 00:00:00FILE "16 - Funeral Procession.wav" WAVE TRACK 16 AUDIO TITLE "Funeral Procession" PERFORMER "Armen Babakhanian" FLAGS DCP INDEX 01 00:00:00FILE "17 - Rhythmic Gymnastics.wav" WAVE TRACK 17 AUDIO TITLE "Rhythmic Gymnastics" PERFORMER "Armen Babakhanian" FLAGS DCP INDEX 01 00:00:00FILE "18 - Toccatina.wav" WAVE TRACK 18 AUDIO TITLE "Toccatina" PERFORMER "Armen Babakhanian" FLAGS DCP INDEX 01 00:00:00FILE "19 - Fugue.wav" WAVE TRACK 19 AUDIO TITLE "Fugue" PERFORMER "Armen Babakhanian" FLAGS DCP INDEX 01 00:00:00FILE "20 - Sonatina In C Major (1958) - 1. Allegro Giocoso.wav" WAVE TRACK 20 AUDIO TITLE "Sonatina In C Major (1958) - 1. Allegro Giocoso" PERFORMER "Armen Babakhanian" FLAGS DCP INDEX 01 00:00:00FILE "21 - 2. Andante Con Anima, Rubato.wav" WAVE TRACK 21 AUDIO TITLE "2. Andante Con Anima, Rubato " PERFORMER "Armen Babakhanian" FLAGS DCP INDEX 01 00:00:00FILE "22 - 3. Allegro Mosso.wav" WAVE TRACK 22 AUDIO TITLE "3. Allegro Mosso" PERFORMER "Armen Babakhanian" FLAGS DCP INDEX 01 00:00:00



Показать сообщения:    

Текущее время: 03-Дек 22:47

Часовой пояс: UTC + 3


Вы не можете начинать темы
Вы не можете отвечать на сообщения
Вы не можете редактировать свои сообщения
Вы не можете удалять свои сообщения
Вы не можете голосовать в опросах
Вы не можете прикреплять файлы к сообщениям
Вы не можете скачивать файлы