(Classical, Harp) Claude Debussy (Клод Дебюсси), Erik Satie (Эрик Сати), Maurice Ravel (Морис Равель), Yann Tiersen (Ян Тьерсен) - Voyage (Lavinia Meijer) - 2015, FLAC (tracks+.cue) lossless


 

[Цитировать]

Claude Debussy, Erik Satie, Maurice Ravel, Yann Tiersen - Voyage by Lavinia Meijer
Жанр: Classical, Harp
Страна-производитель диска: EU
Год издания диска: 2015
Издатель (лейбл): Sony Classical
Номер по каталогу: 88875046402
Дата записи: 13.02.2014
Аудиокодек: FLAC
Тип рипа: tracks+.cue
Битрейт аудио: lossless
Продолжительность: 01:00:04
Источник: what.cd (25tab)
Наличие сканов в содержимом раздачи: нет
Треклист:
1. Clair de lune (Debussy)
2. Introduction et Allegro (Ravel)
3. Gymnopédie 1 (Satie)
4. Comptine d’un autre été: L’après-midi (Tiersen)
5. La valse des monstres (Tiersen)
6. La fille aux cheveux de lin (Debussy)
7. La valse d’Amélie (Tiersen)
8. Gnossienne 1 (Satie)
9. Gnossienne 2 (Satie)
10. Gnossienne 3 (Satie)
11. Gnossienne 5 (Satie)
12. Bruyères (Debussy)
13. Danses pour harpe et orchestre d'instruments à cordes: I Danse sacrée (Debussy)
14. Danses pour harpe et orchestreß d'instruments à cordes: II Danse profane (Debussy)
15. Sur le fil (Tiersen)
Исполнители:
Lavinia Meijer: harp

Лог создания рипа

Exact Audio Copy V1.1 from 23. June 2015
EAC extraction logfile from 12. July 2015, 11:31
Lavinia Meijer / Voyage
Used drive : Optiarc DVD RW AD-7191A Adapter: 1 ID: 0
Read mode : SecureUtilize accurate stream : YesDefeat audio cache : YesMake use of C2 pointers : Yes
Read offset correction : 6Overread into Lead-In and Lead-Out : NoFill up missing offset samples with silence : YesDelete leading and trailing silent blocks : NoNull samples used in CRC calculations : YesUsed interface : Native Win32 interface for Win NT & 2000Gap handling : Appended to previous track
Used output format : User Defined EncoderSelected bitrate : 1024 kBit/sQuality : HighAdd ID3 tag : NoCommand line compressor : C:\Program Files\Exact Audio Copy\FLAC\FLAC.EXEAdditional command line options : -8 -V -T "ARTIST=%artist%" -T "TITLE=%title%" -T "ALBUM=%albumtitle%" -T "DATE=%year%" -T "TRACKNUMBER=%tracknr%" -T "GENRE=%genre%" -T "PERFORMER=%albuminterpret%" -T "COMPOSER=%composer%" %haslyrics%--tag-from-file=LYRICS="%lyricsfile%"%haslyrics% -T "ALBUMARTIST=%albumartist%" -T "DISCNUMBER=%cdnumber%" -T "TOTALDISCS=%totalcds%" -T "TOTALTRACKS=%numtracks%" -T "COMMENT=%comment%" %source% -o %dest%
TOC of the extracted CD
Track | Start | Length | Start sector | End sector --------------------------------------------------------- 1 | 0:00.00 | 4:43.24 | 0 | 21248 2 | 4:43.24 | 10:06.11 | 21249 | 66709 3 | 14:49.35 | 3:42.20 | 66710 | 83379 4 | 18:31.55 | 2:10.09 | 83380 | 93138 5 | 20:41.64 | 3:38.53 | 93139 | 109541 6 | 24:20.42 | 2:45.09 | 109542 | 121925 7 | 27:05.51 | 2:42.42 | 121926 | 134117 8 | 29:48.18 | 4:33.59 | 134118 | 154651 9 | 34:22.02 | 2:06.14 | 154652 | 164115 10 | 36:28.16 | 3:22.52 | 164116 | 179317 11 | 39:50.68 | 2:59.28 | 179318 | 192770 12 | 42:50.21 | 3:11.17 | 192771 | 207112 13 | 46:01.38 | 4:53.01 | 207113 | 229088 14 | 50:54.39 | 4:44.25 | 229089 | 250413 15 | 55:38.64 | 4:24.72 | 250414 | 270285
Track 1
Filename C:\rip\01 Clair de lune.wav
Pre-gap length 0:00:02.00
Peak level 96.8 % Extraction speed 5.8 X Track quality 100.0 % Test CRC 3C5DCFEE Copy CRC 3C5DCFEE Accurately ripped (confidence 3) [B47500A5] (AR v2) Copy OK
Track 2
Filename C:\rip\02 Introduction et Allegro.wav
Pre-gap length 0:00:05.08
Peak level 97.9 % Extraction speed 7.5 X Track quality 100.0 % Test CRC F860E543 Copy CRC F860E543 Accurately ripped (confidence 3) [31E821A0] (AR v2) Copy OK
Track 3
Filename C:\rip\03 Gymnopédie 1.wav
Pre-gap length 0:00:04.34
Peak level 60.4 % Extraction speed 7.4 X Track quality 100.0 % Test CRC FCB68D2A Copy CRC FCB68D2A Accurately ripped (confidence 3) [ECCB0F24] (AR v2) Copy OK
Track 4
Filename C:\rip\04 Comptine d'un autre été- L'après-midi.wav
Pre-gap length 0:00:05.60
Peak level 74.8 % Extraction speed 6.8 X Track quality 100.0 % Test CRC CA030447 Copy CRC CA030447 Accurately ripped (confidence 3) [10E1D06E] (AR v2) Copy OK
Track 5
Filename C:\rip\05 La valse des monstres.wav
Pre-gap length 0:00:03.49
Peak level 86.3 % Extraction speed 7.9 X Track quality 100.0 % Test CRC E60EB4F9 Copy CRC E60EB4F9 Accurately ripped (confidence 3) [9378B35D] (AR v2) Copy OK
Track 6
Filename C:\rip\06 La fille aux cheveux de lin.wav
Pre-gap length 0:00:04.64
Peak level 71.7 % Extraction speed 7.5 X Track quality 100.0 % Test CRC 8D29FDCA Copy CRC 8D29FDCA Accurately ripped (confidence 3) [CC53BB9D] (AR v2) Copy OK
Track 7
Filename C:\rip\07 La valse d'Amélie.wav
Pre-gap length 0:00:04.24
Peak level 70.9 % Extraction speed 7.8 X Track quality 100.0 % Test CRC B3B56913 Copy CRC B3B56913 Accurately ripped (confidence 3) [4BD3CC96] (AR v2) Copy OK
Track 8
Filename C:\rip\08 Gnossiènes 1.wav
Pre-gap length 0:00:04.01
Peak level 65.1 % Extraction speed 9.1 X Track quality 100.0 % Test CRC AA6A7240 Copy CRC AA6A7240 Accurately ripped (confidence 3) [AE25E5ED] (AR v2) Copy OK
Track 9
Filename C:\rip\09 Gnossiènes 2.wav
Peak level 57.4 % Extraction speed 6.1 X Track quality 99.8 % Test CRC 9237DC1A Copy CRC 9237DC1A Accurately ripped (confidence 3) [EA6C28A9] (AR v2) Copy OK
Track 10
Filename C:\rip\10 Gnossiènes 3.wav
Peak level 39.7 % Extraction speed 7.5 X Track quality 99.8 % Test CRC E4239F29 Copy CRC E4239F29 Accurately ripped (confidence 3) [857529E5] (AR v2) Copy OK
Track 11
Filename C:\rip\11 Gnossiènes 5.wav
Peak level 80.5 % Extraction speed 7.4 X Track quality 99.8 % Test CRC 7AF3BCA5 Copy CRC 7AF3BCA5 Accurately ripped (confidence 3) [02D1339A] (AR v2) Copy OK
Track 12
Filename C:\rip\12 Bruyères.wav
Pre-gap length 0:00:04.66
Peak level 88.7 % Extraction speed 9.4 X Track quality 100.0 % Test CRC 6042C951 Copy CRC 6042C951 Accurately ripped (confidence 3) [CDEAF5BF] (AR v2) Copy OK
Track 13
Filename C:\rip\13 Danses pour harpe et orchestre d'instruments à cordes- I danse sacrée.wav
Pre-gap length 0:00:05.46
Peak level 84.3 % Extraction speed 10.4 X Track quality 100.0 % Test CRC 15AA4A02 Copy CRC 15AA4A02 Accurately ripped (confidence 3) [F73C434B] (AR v2) Copy OK
Track 14
Filename C:\rip\14 Danses pour harpe et orchestre d'instruments à cordes- II danse profane.wav
Peak level 97.9 % Extraction speed 10.7 X Track quality 100.0 % Test CRC 0D83A8EC Copy CRC 0D83A8EC Accurately ripped (confidence 3) [1F8AAAA5] (AR v2) Copy OK
Track 15
Filename C:\rip\15 Sur le fil.wav
Pre-gap length 0:00:04.68
Peak level 86.1 % Extraction speed 10.8 X Track quality 100.0 % Test CRC 22FD0EE4 Copy CRC 22FD0EE4 Accurately ripped (confidence 3) [1D80AA7F] (AR v2) Copy OK
All tracks accurately ripped
No errors occurred
End of status report
---- CUETools DB Plugin V2.1.6
[CTDB TOCID: m3rYUaNTDVvqPgpDcc7JtgnzWA8-] foundSubmit result: m3rYUaNTDVvqPgpDcc7JtgnzWA8- has been confirmedTrack | CTDB Status 1 | (4/4) Accurately ripped 2 | (4/4) Accurately ripped 3 | (4/4) Accurately ripped 4 | (4/4) Accurately ripped 5 | (4/4) Accurately ripped 6 | (4/4) Accurately ripped 7 | (4/4) Accurately ripped 8 | (4/4) Accurately ripped 9 | (4/4) Accurately ripped 10 | (4/4) Accurately ripped 11 | (4/4) Accurately ripped 12 | (4/4) Accurately ripped 13 | (4/4) Accurately ripped 14 | (4/4) Accurately ripped 15 | (4/4) Accurately ripped
==== Log checksum FCF10B0079FE0E297FAA0D3B4729CC3FD60F60A30CDD7FA85EB1429B1BD97608 ====
------------------------------------------------------------
Exact Audio Copy V1.1 from 23. June 2015
EAC extraction logfile from 12. July 2015, 11:57
Lavinia Meijer / Voyage
Used drive : Optiarc DVD RW AD-7191A Adapter: 1 ID: 0
Read mode : SecureUtilize accurate stream : YesDefeat audio cache : YesMake use of C2 pointers : No
Read offset correction : 6Overread into Lead-In and Lead-Out : NoFill up missing offset samples with silence : YesDelete leading and trailing silent blocks : NoNull samples used in CRC calculations : YesUsed interface : Native Win32 interface for Win NT & 2000Gap handling : Appended to previous track
Used output format : User Defined EncoderSelected bitrate : 1024 kBit/sQuality : HighAdd ID3 tag : NoCommand line compressor : C:\Program Files\Exact Audio Copy\FLAC\FLAC.EXEAdditional command line options : -8 -V -T "ARTIST=%artist%" -T "TITLE=%title%" -T "ALBUM=%albumtitle%" -T "DATE=%year%" -T "TRACKNUMBER=%tracknr%" -T "GENRE=%genre%" -T "PERFORMER=%albuminterpret%" -T "COMPOSER=%composer%" %haslyrics%--tag-from-file=LYRICS="%lyricsfile%"%haslyrics% -T "ALBUMARTIST=%albumartist%" -T "DISCNUMBER=%cdnumber%" -T "TOTALDISCS=%totalcds%" -T "TOTALTRACKS=%numtracks%" -T "COMMENT=%comment%" %source% -o %dest%
TOC of the extracted CD
Track | Start | Length | Start sector | End sector --------------------------------------------------------- 1 | 0:00.00 | 4:43.24 | 0 | 21248 2 | 4:43.24 | 10:06.11 | 21249 | 66709 3 | 14:49.35 | 3:42.20 | 66710 | 83379 4 | 18:31.55 | 2:10.09 | 83380 | 93138 5 | 20:41.64 | 3:38.53 | 93139 | 109541 6 | 24:20.42 | 2:45.09 | 109542 | 121925 7 | 27:05.51 | 2:42.42 | 121926 | 134117 8 | 29:48.18 | 4:33.59 | 134118 | 154651 9 | 34:22.02 | 2:06.14 | 154652 | 164115 10 | 36:28.16 | 3:22.52 | 164116 | 179317 11 | 39:50.68 | 2:59.28 | 179318 | 192770 12 | 42:50.21 | 3:11.17 | 192771 | 207112 13 | 46:01.38 | 4:53.01 | 207113 | 229088 14 | 50:54.39 | 4:44.25 | 229089 | 250413 15 | 55:38.64 | 4:24.72 | 250414 | 270285
Track 1
Filename C:\rip\01 Clair de lune.wav
Pre-gap length 0:00:02.00
Peak level 96.8 % Extraction speed 4.2 X Track quality 100.0 % Test CRC 3C5DCFEE Copy CRC 3C5DCFEE Accurately ripped (confidence 3) [B47500A5] (AR v2) Copy OK
Track 2
Filename C:\rip\02 Introduction et Allegro.wav
Pre-gap length 0:00:05.08
Peak level 97.9 % Extraction speed 5.4 X Track quality 100.0 % Test CRC F860E543 Copy CRC F860E543 Accurately ripped (confidence 3) [31E821A0] (AR v2) Copy OK
Track 3
Filename C:\rip\03 Gymnopédie 1.wav
Pre-gap length 0:00:04.34
Peak level 60.4 % Extraction speed 5.4 X Track quality 100.0 % Test CRC FCB68D2A Copy CRC FCB68D2A Accurately ripped (confidence 3) [ECCB0F24] (AR v2) Copy OK
Track 4
Filename C:\rip\04 Comptine d'un autre été- L'après-midi.wav
Pre-gap length 0:00:05.60
Peak level 74.8 % Extraction speed 4.3 X Track quality 99.9 % Test CRC CA030447 Copy CRC CA030447 Accurately ripped (confidence 3) [10E1D06E] (AR v2) Copy OK
Track 5
Filename C:\rip\05 La valse des monstres.wav
Pre-gap length 0:00:03.49
Peak level 86.3 % Extraction speed 5.9 X Track quality 100.0 % Test CRC E60EB4F9 Copy CRC E60EB4F9 Accurately ripped (confidence 3) [9378B35D] (AR v2) Copy OK
Track 6
Filename C:\rip\06 La fille aux cheveux de lin.wav
Pre-gap length 0:00:04.64
Peak level 71.7 % Extraction speed 5.9 X Track quality 100.0 % Test CRC 8D29FDCA Copy CRC 8D29FDCA Accurately ripped (confidence 3) [CC53BB9D] (AR v2) Copy OK
Track 7
Filename C:\rip\07 La valse d'Amélie.wav
Pre-gap length 0:00:04.24
Peak level 70.9 % Extraction speed 3.8 X Track quality 100.0 % Test CRC B3B56913 Copy CRC B3B56913 Accurately ripped (confidence 3) [4BD3CC96] (AR v2) Copy OK
Track 8
Filename C:\rip\08 Gnossiènes 1.wav
Pre-gap length 0:00:04.01
Peak level 65.1 % Extraction speed 5.4 X Track quality 100.0 % Test CRC AA6A7240 Copy CRC AA6A7240 Accurately ripped (confidence 3) [AE25E5ED] (AR v2) Copy OK
Track 9
Filename C:\rip\09 Gnossiènes 2.wav
Peak level 57.4 % Extraction speed 4.9 X Track quality 100.0 % Test CRC 9237DC1A Copy CRC 9237DC1A Accurately ripped (confidence 3) [EA6C28A9] (AR v2) Copy OK
Track 10
Filename C:\rip\10 Gnossiènes 3.wav
Peak level 39.7 % Extraction speed 6.0 X Track quality 100.0 % Test CRC E4239F29 Copy CRC E4239F29 Accurately ripped (confidence 3) [857529E5] (AR v2) Copy OK
Track 11
Filename C:\rip\11 Gnossiènes 5.wav
Peak level 80.5 % Extraction speed 5.4 X Track quality 100.0 % Test CRC 7AF3BCA5 Copy CRC 7AF3BCA5 Accurately ripped (confidence 3) [02D1339A] (AR v2) Copy OK
Track 12
Filename C:\rip\12 Bruyères.wav
Pre-gap length 0:00:04.66
Peak level 88.7 % Extraction speed 5.8 X Track quality 99.9 % Test CRC 6042C951 Copy CRC 6042C951 Accurately ripped (confidence 3) [CDEAF5BF] (AR v2) Copy OK
Track 13
Filename C:\rip\13 Danses pour harpe et orchestre d'instruments à cordes- I danse sacrée.wav
Pre-gap length 0:00:05.46
Peak level 84.3 % Extraction speed 6.5 X Track quality 100.0 % Test CRC 15AA4A02 Copy CRC 15AA4A02 Accurately ripped (confidence 3) [F73C434B] (AR v2) Copy OK
Track 14
Filename C:\rip\14 Danses pour harpe et orchestre d'instruments à cordes- II danse profane.wav
Peak level 97.9 % Extraction speed 6.2 X Track quality 100.0 % Test CRC 0D83A8EC Copy CRC 0D83A8EC Accurately ripped (confidence 3) [1F8AAAA5] (AR v2) Copy OK
Track 15
Filename C:\rip\15 Sur le fil.wav
Pre-gap length 0:00:04.68
Peak level 86.1 % Extraction speed 5.0 X Track quality 99.9 % Test CRC 22FD0EE4 Copy CRC 22FD0EE4 Accurately ripped (confidence 3) [1D80AA7F] (AR v2) Copy OK
All tracks accurately ripped
No errors occurred
End of status report
---- CUETools DB Plugin V2.1.6
[CTDB TOCID: m3rYUaNTDVvqPgpDcc7JtgnzWA8-] foundSubmit result: already submittedTrack | CTDB Status 1 | (5/5) Accurately ripped 2 | (5/5) Accurately ripped 3 | (5/5) Accurately ripped 4 | (5/5) Accurately ripped 5 | (5/5) Accurately ripped 6 | (5/5) Accurately ripped 7 | (5/5) Accurately ripped 8 | (5/5) Accurately ripped 9 | (5/5) Accurately ripped 10 | (5/5) Accurately ripped 11 | (5/5) Accurately ripped 12 | (5/5) Accurately ripped 13 | (5/5) Accurately ripped 14 | (5/5) Accurately ripped 15 | (5/5) Accurately ripped
==== Log checksum FE205AE314EA390F967EAEC62BF8460042C19D667A90C5AB1AEAB6C322708FEA ====

Содержание индексной карты (.CUE)

REM DATE 2015REM DISCID C30E130FREM COMMENT "ExactAudioCopy v1.1"CATALOG 8887504640268PERFORMER "Lavinia Meijer"TITLE "Voyage"FILE "01 Clair de lune.wav" WAVE TRACK 01 AUDIO TITLE "Clair de lune" PERFORMER "Lavinia Meijer" FLAGS DCP INDEX 01 00:00:00 TRACK 02 AUDIO TITLE "Introduction et Allegro" PERFORMER "Lavinia Meijer" FLAGS DCP INDEX 00 04:38:18FILE "02 Introduction et Allegro.wav" WAVE INDEX 01 00:00:00 TRACK 03 AUDIO TITLE "Gymnopйdie 1" PERFORMER "Lavinia Meijer" FLAGS DCP INDEX 00 10:01:60FILE "03 Gymnopйdie 1.wav" WAVE INDEX 01 00:00:00 TRACK 04 AUDIO TITLE "Comptine d'un autre йtй: L'aprиs-midi" PERFORMER "Lavinia Meijer" FLAGS DCP INDEX 00 03:36:50FILE "04 Comptine d'un autre йtй- L'aprиs-midi.wav" WAVE INDEX 01 00:00:00 TRACK 05 AUDIO TITLE "La valse des monstres" PERFORMER "Lavinia Meijer" FLAGS DCP INDEX 00 02:06:47FILE "05 La valse des monstres.wav" WAVE INDEX 01 00:00:00 TRACK 06 AUDIO TITLE "La fille aux cheveux de lin" PERFORMER "Lavinia Meijer" FLAGS DCP INDEX 00 03:34:05FILE "06 La fille aux cheveux de lin.wav" WAVE INDEX 01 00:00:00 TRACK 07 AUDIO TITLE "La valse d'Amйlie" PERFORMER "Lavinia Meijer" FLAGS DCP INDEX 00 02:40:66FILE "07 La valse d'Amйlie.wav" WAVE INDEX 01 00:00:00 TRACK 08 AUDIO TITLE "Gnossiиnes 1" PERFORMER "Lavinia Meijer" FLAGS DCP INDEX 00 02:38:41FILE "08 Gnossiиnes 1.wav" WAVE INDEX 01 00:00:00FILE "09 Gnossiиnes 2.wav" WAVE TRACK 09 AUDIO TITLE "Gnossiиnes 2" PERFORMER "Lavinia Meijer" FLAGS DCP INDEX 01 00:00:00FILE "10 Gnossiиnes 3.wav" WAVE TRACK 10 AUDIO TITLE "Gnossiиnes 3" PERFORMER "Lavinia Meijer" FLAGS DCP INDEX 01 00:00:00FILE "11 Gnossiиnes 5.wav" WAVE TRACK 11 AUDIO TITLE "Gnossiиnes 5" PERFORMER "Lavinia Meijer" FLAGS DCP INDEX 01 00:00:00 TRACK 12 AUDIO TITLE "Bruyиres" PERFORMER "Lavinia Meijer" FLAGS DCP INDEX 00 02:54:53FILE "12 Bruyиres.wav" WAVE INDEX 01 00:00:00 TRACK 13 AUDIO TITLE "Danses pour harpe et orchestre d'instruments а cordes: I danse sacrйe" PERFORMER "Lavinia Meijer" FLAGS DCP INDEX 00 03:05:57FILE "13 Danses pour harpe et orchestre d'instruments а cordes- I danse sacrйe.wav" WAVE INDEX 01 00:00:00FILE "14 Danses pour harpe et orchestre d'instruments а cordes- II danse profane.wav" WAVE TRACK 14 AUDIO TITLE "Danses pour harpe et orchestre d'instruments а cordes: II danse profane" PERFORMER "Lavinia Meijer" FLAGS DCP INDEX 01 00:00:00 TRACK 15 AUDIO TITLE "Sur le fil" PERFORMER "Lavinia Meijer" FLAGS DCP INDEX 00 04:39:49FILE "15 Sur le fil.wav" WAVE INDEX 01 00:00:00

Об исполнителе

Голландская арфистка южнокорейского происхождения Лавиния Мейер (род. в 1983 году) признана одной из лучших арфисток мира. В Нидерландах у нее статус «культурной иконы». Широта ее увлечений не ограничивается только классической музыкой. Лавиния экспериментирует с джазом, поп-музыкой и нео-классикой. В 2012 году она выпустила альбом «Metamorphis - The Hours» с работами Филипа Гласса, поднявшийся на верхние позиции в голландских чартах. В 2013 году альбом «Passaggio», в котором Лавиния играет произведения итальянского композитора-минималиста Людовико Эйнауди, стал номером один в классических чартах iTunes. В 2015 году диск Лавинии Мейер «Voyage» с произведениями Клода Дебюсси, Эрика Сати, Мориса Равеля и Яна Тирсена, вышедший на мэйджор-лейбле Sony Classical, тоже мгновенно стал лидером продаж в европейских классических чартах.
Доп. информация: http://www.laviniameijer.com/



Показать сообщения:    

Текущее время: 10-Дек 23:33

Часовой пояс: UTC + 3


Вы не можете начинать темы
Вы не можете отвечать на сообщения
Вы не можете редактировать свои сообщения
Вы не можете удалять свои сообщения
Вы не можете голосовать в опросах
Вы не можете прикреплять файлы к сообщениям
Вы не можете скачивать файлы