(Classical) Феликс Нововейский – Сочинения для фортепиано II / Feliks Nowowiejski – Piano works, vol. 2 (Magdalena Adamek) - 2003, FLAC (image+.cue) lossless


 

[Цитировать]

Нововейский – Сочинения для фортепиано II / Nowowiejski – Piano works, vol. 2 (Magdalena Adamek)
Жанр: Classical
Страна-производитель диска: Польша
Год издания диска: 2003
Издатель (лейбл): Acte Préalable
Номер по каталогу: AP0086
Дата записи: январь и май 2002 г.
Аудиокодек: FLAC
Тип рипа: image+.cue
Битрейт аудио: lossless
Продолжительность: 01:09:30
Источник: odeonmusic
Наличие сканов в содержимом раздачи: да
Треклист:-Феликс Нововейский (1877 — 1946).
Сочинения для фортепиано, диск II.-«Простые классические и современные танцы для детей» (Łatwe tańce klasyczne i współczesne dla dzieci), op. 2 № 3 (ок. 1887).
01. № 1 C-dur. Начинаем полонезом (Rozpoczynamy polonezem) [02:26].
02. № 2 C-dur. Менуэт несколько в стиле Моцарта (Menuet trochę à la Mozart) [02:01].
03. № 3 C-dur. Веселая чешская полька (Wesoła polka czeska) [01:55].
04. № 4 a-moll. Маленький вальс голубоглазой Ани (Walczyk modrookiej Hani) [01:28].
05. № 5 F-dur. Деревенский галоп (Galop na wiejską nutę) [01:30].
06. № 6 G-dur. Сегодня, сегодня, сегодня мазурка (Dziś, dziś, dziś, mazur jedzie) [02:33].
07. № 7 C-dur. Маленький краковяк (Krakowiaczek ci ja) [01:14].
08. Листок из альбома F-dur, op. 20 № 7 [03:42].
09. Боровяк (Borowiak), кашубский танец B-dur (1930-е) [04:03].
10. Баллада № 2 A-dur, op. 20 № 2 [07:21].
«Славянские картины» (Obrazki słowiańskie), op. 57 № 3 (ок. 1940).
11. № [?] a-moll [06:02].
16. № [?] e-moll. Гонтина в Арконе (Gontyna w Arkonie) [07:51].
17. № [?] a-moll. Поэзия старого Кракова (Poezja starego Krakowa) [03:14].
Пять мазурок, op. 20 № 5.
12. № 3 d-moll [03:52].
13. № 4 a-moll [03:18].
14. № 5 e-moll [03:59].
15. Френ (Tren) D-dur, op. 20 № 3 [07:08].
18. Преторианский марш из [второй сцены] оратории «Quo vadis?», op. 13 (перв. исп. 1907; 2-я ред. 1909). Переложение для фортепиано [05:07].-Исполнитель:
Magdalena Adamek (фортепиано).-

Лог создания рипа

Exact Audio Copy V1.0 beta 3 from 29. August 2011
EAC extraction logfile from 9. October 2012, 19:16
Magdalena Adamek / Nowowiejski - Piano works (Vol.2) - Magdalena Adamek
Used drive : TSSTcorpCDDVDW TS-L633M Adapter: 1 ID: 0
Read mode : SecureUtilize accurate stream : YesDefeat audio cache : YesMake use of C2 pointers : No
Read offset correction : 6Overread into Lead-In and Lead-Out : NoFill up missing offset samples with silence : YesDelete leading and trailing silent blocks : NoNull samples used in CRC calculations : YesUsed interface : Native Win32 interface for Win NT & 2000
Used output format : User Defined EncoderSelected bitrate : 320 kBit/sQuality : HighAdd ID3 tag : NoCommand line compressor : C:\Program Files\Exact Audio Copy\Flac\flac.exeAdditional command line options : -8 -V -T "TITLE=%title%" -T "ARTIST=%artist%" -T "ALBUMARTIST=%albumartist%" -T "ALBUM=%albumtitle%" -T "DATE=%year%" -T "TRACKNUMBER=%tracknr%" -T "TRACKTOTAL=%numtracks%" -T "GENRE=%genre%" -T "COMMENT=%comment%" -T "PERFORMER=%albuminterpret%" -T "COMPOSER=%composer%" %source% -o %dest%
TOC of the extracted CD
Track | Start | Length | Start sector | End sector --------------------------------------------------------- 1 | 0:00.00 | 2:28.41 | 0 | 11140 2 | 2:28.41 | 2:03.43 | 11141 | 20408 3 | 4:32.09 | 1:57.04 | 20409 | 29187 4 | 6:29.13 | 1:30.10 | 29188 | 35947 5 | 7:59.23 | 1:33.05 | 35948 | 42927 6 | 9:32.28 | 2:35.58 | 42928 | 54610 7 | 12:08.11 | 1:16.61 | 54611 | 60371 8 | 13:24.72 | 3:44.59 | 60372 | 77230 9 | 17:09.56 | 4:05.28 | 77231 | 95633 10 | 21:15.09 | 7:23.06 | 95634 | 128864 11 | 28:38.15 | 6:04.48 | 128865 | 156212 12 | 34:42.63 | 3:54.34 | 156213 | 173796 13 | 38:37.22 | 3:20.26 | 173797 | 188822 14 | 41:57.48 | 4:01.43 | 188823 | 206940 15 | 45:59.16 | 7:10.56 | 206941 | 239246 16 | 53:09.72 | 7:53.15 | 239247 | 274736 17 | 61:03.12 | 3:16.73 | 274737 | 289509 18 | 64:20.10 | 5:07.73 | 289510 | 312607
Range status and errors
Selected range
Filename C:\Users\JS\Desktop\Nowowiejski - Piano works (Vol.2) - Magdalena Adamek\Nowowiejski - Piano works (Vol.2) - Magdalena Adamek.wav
Peak level 100.0 % Extraction speed 2.1 X Range quality 100.0 % Test CRC DB592623 Copy CRC DB592623 Copy OK
No errors occurred
AccurateRip summary
Track 1 not present in databaseTrack 2 not present in databaseTrack 3 not present in databaseTrack 4 not present in databaseTrack 5 not present in databaseTrack 6 not present in databaseTrack 7 not present in databaseTrack 8 not present in databaseTrack 9 not present in databaseTrack 10 not present in databaseTrack 11 not present in databaseTrack 12 not present in databaseTrack 13 not present in databaseTrack 14 not present in databaseTrack 15 not present in databaseTrack 16 not present in databaseTrack 17 not present in databaseTrack 18 not present in database
None of the tracks are present in the AccurateRip database
End of status report

Содержание индексной карты (.CUE)

REM DISCID EA104812REM COMMENT "ExactAudioCopy v1.0b3"PERFORMER "Magdalena Adamek"TITLE "Nowowiejski – Piano works, vol. 2 – Magdalena Adamek"FILE "Nowowiejski – Piano works, vol. 2 – Magdalena Adamek.flac" WAVE TRACK 01 AUDIO TITLE "Easy classical and contemporary dances for children - No. 1. Rozpoczynamy polonezem" PERFORMER "Magdalena Adamek" FLAGS DCP INDEX 01 00:00:00 TRACK 02 AUDIO TITLE "Easy classical and contemporary dances for children - No. 2. Menuet troche a la Mozart" PERFORMER "Magdalena Adamek" FLAGS DCP INDEX 00 02:26:41 INDEX 01 02:28:41 TRACK 03 AUDIO TITLE "Easy classical and contemporary dances for children - No. 3. Wesola polka czeska" PERFORMER "Magdalena Adamek" FLAGS DCP INDEX 00 04:30:09 INDEX 01 04:32:09 TRACK 04 AUDIO TITLE "Easy classical and contemporary dances for children - No. 4. Walczyk modrookiej Hani" PERFORMER "Magdalena Adamek" FLAGS DCP INDEX 00 06:27:13 INDEX 01 06:29:13 TRACK 05 AUDIO TITLE "Easy classical and contemporary dances for children - No. 5. Galop na wiejska nute" PERFORMER "Magdalena Adamek" FLAGS DCP INDEX 00 07:57:23 INDEX 01 07:59:23 TRACK 06 AUDIO TITLE "Easy classical and contemporary dances for children - No. 6. Dzis, dzis, dzis, mazur jedzie" PERFORMER "Magdalena Adamek" FLAGS DCP INDEX 00 09:30:28 INDEX 01 09:32:28 TRACK 07 AUDIO TITLE "Easy classical and contemporary dances for children - No. 7. Krakowiaczek ci ja" PERFORMER "Magdalena Adamek" FLAGS DCP INDEX 00 12:06:11 INDEX 01 12:08:11 TRACK 08 AUDIO TITLE "Album leave" PERFORMER "Magdalena Adamek" FLAGS DCP INDEX 00 13:22:72 INDEX 01 13:24:72 TRACK 09 AUDIO TITLE "Kashubian dance Borowiak" PERFORMER "Magdalena Adamek" FLAGS DCP INDEX 00 17:07:56 INDEX 01 17:09:56 TRACK 10 AUDIO TITLE "Ballade No. 2 in A major, Op. 20 no. 2" PERFORMER "Magdalena Adamek" FLAGS DCP INDEX 00 21:13:09 INDEX 01 21:15:09 TRACK 11 AUDIO TITLE "Slavonic picture" PERFORMER "Magdalena Adamek" FLAGS DCP INDEX 00 28:36:15 INDEX 01 28:38:15 TRACK 12 AUDIO TITLE "Mazurka No. 3 in D minor" PERFORMER "Magdalena Adamek" FLAGS DCP INDEX 00 34:40:63 INDEX 01 34:42:63 TRACK 13 AUDIO TITLE "Mazurka No. 4 in A minor" PERFORMER "Magdalena Adamek" FLAGS DCP INDEX 00 38:35:22 INDEX 01 38:37:22 TRACK 14 AUDIO TITLE "Mazurka No. 5 in E minor" PERFORMER "Magdalena Adamek" FLAGS DCP INDEX 00 41:55:48 INDEX 01 41:57:48 TRACK 15 AUDIO TITLE "Threnody, Op. 20 no. 3" PERFORMER "Magdalena Adamek" FLAGS DCP INDEX 00 45:57:16 INDEX 01 45:59:16 TRACK 16 AUDIO TITLE "Gontyna in Arkona" PERFORMER "Magdalena Adamek" FLAGS DCP INDEX 00 53:07:72 INDEX 01 53:09:72 TRACK 17 AUDIO TITLE "Poezja starego Krakowa" PERFORMER "Magdalena Adamek" FLAGS DCP INDEX 00 61:01:12 INDEX 01 61:03:12 TRACK 18 AUDIO TITLE "Praetorian's March from 'Quo vadis'" PERFORMER "Magdalena Adamek" FLAGS DCP INDEX 00 64:18:10 INDEX 01 64:20:10
-Нововейский – Две мессы / Nowowiejski ­– Masses pro pace & Stella maris (Anna Dramowicz, Maciej Ingielewicz; Janusz Wiliński; Janusz Przybylski)



Показать сообщения:    

Текущее время: 09-Дек 01:09

Часовой пояс: UTC + 3


Вы не можете начинать темы
Вы не можете отвечать на сообщения
Вы не можете редактировать свои сообщения
Вы не можете удалять свои сообщения
Вы не можете голосовать в опросах
Вы не можете прикреплять файлы к сообщениям
Вы не можете скачивать файлы