(Classical) Рахманинов (Rachmaninov, Rachmaninoff) · Sonata No. 2 in B flat Minor, Villa-Lobos · Rudepoema, Chopin (Шопен) · Sonata No. 2 in B flat Minor, Schulz-Evler · Arabesques on themes by Johann Strauss (Штраус) (Marc-André/Andre Hamelin) 1994


 

[Цитировать]

Marc-André Hamelin
Рахманинов
Villa-Lobos
Chopin
Schulz-Evler

Жанр: classical
Страна-производитель диска: Канада
Год издания диска: 1994
Издатель: Port Royal Records
Номер по каталогу: PR-2204-2
Дата записи: сентябрь 1994
Аудиокодек: FLAC
Тип рипа: tracks+.cue
Битрейт аудио: lossless
Продолжительность: 01:08:34
Источник: скачано с what.cd
Сканы оформления в содержимом раздачи есть
Исполнитель: Marc-André Hamelin

Треклист

Рахманинов
Sonata No. 2 in B flat Minor, Op. 36
01. Allegro agitato (7:39)
02. Non allegro (6:44)
03. Allegro molto (4:26)
Villa-Lobos
04. Rudepoêma (17:42)
Chopin
Sonata No. 2 in B flat Minor, Op. 35
05. Grave – Doppio movimento (5:16)
06. Scherzo (5:56)
07. Marche funèbre, Lento (8:02)
08. Finale, Presto (1:32)
Schulz-Evler
09. Arabesques on themes by Johann Strauss (The Beautiful Blue Danube) (11:17)

Лог создания рипа

X Lossless Decoder version 20101212 (126.2)
XLD extraction logfile from 2011-02-02 12:20:01 +1100
Marc-Andre Hamelin / Marc-Andre Hamelin - Rachmaninov, Villa-Lobos, Chopin (1994) [FLAC]
Used drive : MATSHITA DVD-R UJ-898 (revision HC10)
Ripper mode : XLD Secure RipperDisable audio cache : OK for the drive with a cache less than 1375KiBMake use of C2 pointers : NORead offset correction : 102Max retry count : 100Gap status : Analyzed, Appended (except HTOA)
TOC of the extracted CD Track | Start | Length | Start sector | End sector --------------------------------------------------------- 1 | 00:00:00 | 07:38:47 | 0 | 34396 2 | 07:38:47 | 06:44:18 | 34397 | 64714 3 | 14:22:65 | 04:26:12 | 64715 | 84676 4 | 18:49:02 | 17:41:60 | 84677 | 164311 5 | 36:30:62 | 05:16:35 | 164312 | 188046 6 | 41:47:22 | 05:55:40 | 188047 | 214711 7 | 47:42:62 | 08:02:28 | 214712 | 250889 8 | 55:45:15 | 01:31:67 | 250890 | 257781 9 | 57:17:07 | 11:16:40 | 257782 | 308521
List of alternate offset correction values # | Absolute | Relative | Confidence ------------------------------------------ 1 | -1002 | -1104 | 1
AccurateRip Summary Track 01 : OK (confidence 1, with different offset) Track 02 : OK (confidence 1, with different offset) Track 03 : OK (confidence 1, with different offset) Track 04 : OK (confidence 1, with different offset) Track 05 : OK (confidence 1, with different offset) Track 06 : OK (confidence 1, with different offset) Track 07 : OK (confidence 1, with different offset) Track 08 : OK (confidence 1, with different offset) Track 09 : OK (confidence 1, with different offset) ->All tracks accurately ripped.
All Tracks Album gain : -0.21 dB Peak : 0.999908 Statistics Read error : 0 Jitter error (maybe fixed) : 0 Retry sector count : 0 Damaged sector count : 0
Track 01 Filename : /Volumes/RIP/Marc-Andre Hamelin - Rachmaninov, Villa-Lobos, Chopin (1994) [FLAC]/01 - Rachmaninov Sonata No 2 op. 36 I. Allegro agitato.flac Pre-gap length : 00:02:00
Track gain : 1.20 dB Peak : 0.847504 CRC32 hash (test run) : 69C63652 CRC32 hash : 69C63652 CRC32 hash (skip zero) : 16334EA4 AccurateRip signature : A8C99DC1 ->Accurately ripped! (confidence 1) (matched with the different offset correction value; calculated using an additional offset of -1104; the signature after correction is: AE8EE48E) Statistics Read error : 0 Jitter error (maybe fixed) : 0 Retry sector count : 0 Damaged sector count : 0
Track 02 Filename : /Volumes/RIP/Marc-Andre Hamelin - Rachmaninov, Villa-Lobos, Chopin (1994) [FLAC]/02 - Rachmaninov Sonata No 2 op. 36 II. Non allegro.flac
Track gain : 3.92 dB Peak : 0.784943 CRC32 hash (test run) : 806B936A CRC32 hash : 806B936A CRC32 hash (skip zero) : 806B936A AccurateRip signature : 5EB4912B ->Accurately ripped! (confidence 1) (matched with the different offset correction value; calculated using an additional offset of -1104; the signature after correction is: 24F1E955) Statistics Read error : 0 Jitter error (maybe fixed) : 0 Retry sector count : 0 Damaged sector count : 0
Track 03 Filename : /Volumes/RIP/Marc-Andre Hamelin - Rachmaninov, Villa-Lobos, Chopin (1994) [FLAC]/03 - Rachmaninov Sonata No 2 op. 36 III. Allegro molto.flac
Track gain : -0.48 dB Peak : 0.999908 CRC32 hash (test run) : 6FCFB811 CRC32 hash : 6FCFB811 CRC32 hash (skip zero) : 6FCFB811 AccurateRip signature : 3FCEFA52 ->Accurately ripped! (confidence 1) (matched with the different offset correction value; calculated using an additional offset of -1104; the signature after correction is: EB6CD7D7) Statistics Read error : 0 Jitter error (maybe fixed) : 0 Retry sector count : 0 Damaged sector count : 0
Track 04 Filename : /Volumes/RIP/Marc-Andre Hamelin - Rachmaninov, Villa-Lobos, Chopin (1994) [FLAC]/04 - Villa-Lobos - Rudepoema.flac Pre-gap length : 00:04:37
Track gain : -1.38 dB Peak : 0.999878 CRC32 hash (test run) : 7E6BD3F6 CRC32 hash : 7E6BD3F6 CRC32 hash (skip zero) : 7E6BD3F6 AccurateRip signature : FA429DFC ->Accurately ripped! (confidence 1) (matched with the different offset correction value; calculated using an additional offset of -1104; the signature after correction is: 852544AC) Statistics Read error : 0 Jitter error (maybe fixed) : 0 Retry sector count : 0 Damaged sector count : 0
Track 05 Filename : /Volumes/RIP/Marc-Andre Hamelin - Rachmaninov, Villa-Lobos, Chopin (1994) [FLAC]/05 - Chopin Sonata No 2 op 35 I. Grave - Doppo movimento.flac Pre-gap length : 00:04:40
Track gain : -1.41 dB Peak : 0.969513 CRC32 hash (test run) : 3CAC7047 CRC32 hash : 3CAC7047 CRC32 hash (skip zero) : 3CAC7047 AccurateRip signature : FB841B9A ->Accurately ripped! (confidence 1) (matched with the different offset correction value; calculated using an additional offset of -1104; the signature after correction is: 230CE1DE) Statistics Read error : 0 Jitter error (maybe fixed) : 0 Retry sector count : 0 Damaged sector count : 0
Track 06 Filename : /Volumes/RIP/Marc-Andre Hamelin - Rachmaninov, Villa-Lobos, Chopin (1994) [FLAC]/06 - Chopin Sonata No 2 op 35 II. Scherzo.flac
Track gain : 0.61 dB Peak : 0.999908 CRC32 hash (test run) : 362D86A7 CRC32 hash : 362D86A7 CRC32 hash (skip zero) : 362D86A7 AccurateRip signature : FC758DFE ->Accurately ripped! (confidence 1) (matched with the different offset correction value; calculated using an additional offset of -1104; the signature after correction is: 5386583D) Statistics Read error : 0 Jitter error (maybe fixed) : 0 Retry sector count : 0 Damaged sector count : 0
Track 07 Filename : /Volumes/RIP/Marc-Andre Hamelin - Rachmaninov, Villa-Lobos, Chopin (1994) [FLAC]/07 - Chopin Sonata No 2 op 35 III. Marche funebre, Lento.flac
Track gain : 3.59 dB Peak : 0.743378 CRC32 hash (test run) : DE29D253 CRC32 hash : DE29D253 CRC32 hash (skip zero) : DE29D253 AccurateRip signature : CE1AAE26 ->Accurately ripped! (confidence 1) (matched with the different offset correction value; calculated using an additional offset of -1104; the signature after correction is: 2E689BAC) Statistics Read error : 0 Jitter error (maybe fixed) : 0 Retry sector count : 0 Damaged sector count : 0
Track 08 Filename : /Volumes/RIP/Marc-Andre Hamelin - Rachmaninov, Villa-Lobos, Chopin (1994) [FLAC]/08 - Chopin Sonata No 2 op 35 IV. Finale, Presto.flac
Track gain : 1.93 dB Peak : 0.700470 CRC32 hash (test run) : D3F1FCE2 CRC32 hash : D3F1FCE2 CRC32 hash (skip zero) : D3F1FCE2 AccurateRip signature : B0BA9AAD ->Accurately ripped! (confidence 1) (matched with the different offset correction value; calculated using an additional offset of -1104; the signature after correction is: 1600FE8C) Statistics Read error : 0 Jitter error (maybe fixed) : 0 Retry sector count : 0 Damaged sector count : 0
Track 09 Filename : /Volumes/RIP/Marc-Andre Hamelin - Rachmaninov, Villa-Lobos, Chopin (1994) [FLAC]/09 - Schulz-Evler - Arabesques on themes of Johann Strauss (The Beautiful Blue Danube).flac Pre-gap length : 00:04:25
Track gain : 0.66 dB Peak : 0.999908 CRC32 hash (test run) : D9BBB23A CRC32 hash : D9BBB23A CRC32 hash (skip zero) : F95E9517 AccurateRip signature : FC35F9C5 ->Accurately ripped! (confidence 1) (matched with the different offset correction value; calculated using an additional offset of -1104; the signature after correction is: AEDBA24D) Statistics Read error : 0 Jitter error (maybe fixed) : 0 Retry sector count : 0 Damaged sector count : 0
No errors occurred
End of status report

Содержание индексной карты (.CUE)

TITLE "Rachmaninov · Villa-Lobos · Chopin · Schulz-Evler"PERFORMER "Marc-André Hamelin"REM DATE "1994"REM DISCID 7A101109FILE "01. Sonata No. 2 in B flat Minor, Op. 36. Allegro agitato.wav" WAVE TRACK 01 AUDIO TITLE "Sonata No. 2 in B flat Minor, Op. 36: Allegro agitato" INDEX 01 00:00:00FILE "02. Sonata No. 2 in B flat Minor, Op. 36. Non allegro.wav" WAVE TRACK 02 AUDIO TITLE "Sonata No. 2 in B flat Minor, Op. 36: Non allegro" INDEX 01 00:00:00FILE "03. Sonata No. 2 in B flat Minor, Op. 36. Allegro molto.wav" WAVE TRACK 03 AUDIO TITLE "Sonata No. 2 in B flat Minor, Op. 36: Allegro molto" INDEX 01 00:00:00 TRACK 04 AUDIO TITLE "Rudepoêma" INDEX 00 04:21:50FILE "04. Rudepoêma.wav" WAVE INDEX 01 00:00:00 TRACK 05 AUDIO TITLE "Sonata No. 2 in B flat Minor, Op. 35: Grave – Doppio movimento" INDEX 00 17:37:20FILE "05. Sonata No. 2 in B flat Minor, Op. 35. Grave – Doppio movimento.wav" WAVE INDEX 01 00:00:00FILE "06. Sonata No. 2 in B flat Minor, Op. 35. Scherzo.wav" WAVE TRACK 06 AUDIO TITLE "Sonata No. 2 in B flat Minor, Op. 35: Scherzo" INDEX 01 00:00:00FILE "07. Sonata No. 2 in B flat Minor, Op. 35. Marche funèbre, Lento.wav" WAVE TRACK 07 AUDIO TITLE "Sonata No. 2 in B flat Minor, Op. 35: Marche funèbre, Lento" INDEX 01 00:00:00FILE "08. Sonata No. 2 in B flat Minor, Op. 35. Finale, Presto.wav" WAVE TRACK 08 AUDIO TITLE "Sonata No. 2 in B flat Minor, Op. 35: Finale, Presto" INDEX 01 00:00:00 TRACK 09 AUDIO TITLE "Arabesques on themes by Johann Strauss (The Beautiful Blue Danube)" INDEX 00 01:27:42FILE "09. Arabesques on themes by Johann Strauss (The Beautiful Blue Danube).wav" WAVE INDEX 01 00:00:00



Показать сообщения:    

Текущее время: 11-Дек 07:14

Часовой пояс: UTC + 3


Вы не можете начинать темы
Вы не можете отвечать на сообщения
Вы не можете редактировать свои сообщения
Вы не можете удалять свои сообщения
Вы не можете голосовать в опросах
Вы не можете прикреплять файлы к сообщениям
Вы не можете скачивать файлы