(Classical / Piano) Wolfgang Amadeus Mozart - Samtliche Klavierwerke (Complete Piano Works) / Вольфганг Амадей Моцарт - Полное собрание сочинений для фортепиано (Bart van Oort, Ursula Dutschler, 1997-2005) - 2006 [14 CD], FLAC (tracks+.cue) lossless


 

[Цитировать]

Wolfgang Amadeus Mozart | Вольфганг Амадей Моцарт
(1756–1791)



Sämtliche Klavierwerke | Complete Piano Works
Полное собрание сочинений для фортепиано



Bart van Oort piano
Ursula Dütschler piano in 4-hands & duets
Внимание: аутентичное исполнение


Жанр: Classical / Piano
Даты записи: 1997–2005
Формат записи: DDD, Stereo
Год издания диска: 2006
Издатель (лейбл): Brilliant Classics
Номер по каталогу: 93025
Аудиокодек: FLAC
Тип рипа: tracks+.cue
Битрейт аудио: lossless
Продолжительность: 14:49:17
Наличие сканов в содержимом раздачи: да (front+booklet; также обложки и диски от переиздания 94198)
Источник: What.CD (сканы 94198 — с блога OdeonMusic)
Релизёр: kikker71


-
Tracklist / Треклист

CD 1: Sonatas and Fantasies

Sonate Nr. 13 B-dur, KV 333 (315c) - 21:10
I. Allegro - 7:20
  • II. Andante cantabile - 7:29
  • III. Allegretto grazioso - 6:20Fantasia d-moll, KV 397 (385g) - 5:21
  • Fantasia c-moll, KV 396 (385f) - 9:07Sonate Nr. 10 C-dur, KV 330 (330h) - 18:37
    I. Allegro moderato - 6:25
  • II. Andante cantabile - 6:38
  • III. Allegretto - 5:34
    _____
    Recorded: Hervormde Kerk, Rhoon, Netherlands, September 1997
    CD 2: Sonatas, Fantasy and Adagio
    Sonate Nr. 17 B-dur, KV 570 - 18:18
    I. Allegro - 6:08
  • II. Adagio - 8:12
  • III. Allegretto - 3:58Fantasia c-moll, KV 475 - 11:12Sonate Nr. 14 c-moll, KV 457 - 18:05
    I. Molto allegro - 5:26
  • II. Adagio - 7:51
  • III. Allegro assai - 4:48Adagio h-moll, KV 540 - 6:52Sonate Nr. 18 D-dur, KV 576 - 15:02
    I. Allegro - 5:35
  • II. Adagio - 5:04
  • III. Allegretto - 4:23
    _____
    Recorded: Maria Minor, Utrecht, Netherlands, 26–28 April 2000
    CD 3: Variations, Vol. 1
    9 Variationen über «Lison dormait», KV 264 (315d) - 14:27
  • 12 Variationen über «La belle Françoise», KV 353 (300f) - 14:17
  • 12 Variationen über «Je suis Lindor», KV 354 (299a) - 15:20
  • 8 Variationen über «Dieu d'amour», KV 352 (374c) - 11:24
  • 6 Variationen über «Salve tu, Domine», KV 398 (416e) - 6:48
    _____
    Recorded: Doopsgezinde Remontsrantse Kerk, Deventer, Netherlands, 27–29 November 2001 [exc. KV 398]; Hervormde Kerk, Rhoon, Netherlands, September 1997
    CD 4: Variations, Vol. 2
    Andantino con variazioni aus dem Klarinettenquintett, KV 581 - 9:08
  • 10 Variationen über «Unser dummer Pöbel meint», KV 455 - 12:58
  • 12 Variationen über ein eigenes Thema B-dur, KV 500 - 8:44
  • 9 Variationen über ein Menuett von J. P. Duport, KV 573 - 13:41
  • 8 Variationen über «Ein Weib ist das herrlichste Ding», KV 613 - 13:59
    _____
    Recorded: Doopsgezinde Remontsrantse Kerk, Deventer, Netherlands, Decemver 2001 — January 2002
    CD 5: Sonatas and Rondos
    Sonate Nr. 4 Es-dur, KV 282 (189g) - 14:49
    I. Adagio - 7:31
  • II. Menuetto I, II - 4:07
  • III. Allegro - 3:11Rondo D-dur, KV 485 - 6:43Sonate Nr. 5 G-dur, KV 283 (189h) - 19:08
    I. Allegro - 6:05
  • II. Andante - 6:41
  • III. Presto - 6:22Rondo a-moll, KV 511 - 9:57Sonate Nr. 6 D-dur, KV 284 (205b) - 24:40
    I. Allegro - 5:04
  • II. Rondeau en Polonaise: Andante - 5:22
  • III. Tema con Variazioni - 14:14
    _____
    Recorded: Maria Minor, Utrecht, Netherlands, 31 October & 23 December 2003, June & October 2004
    CD 6: Early Sonatas and Variations
    Sonate Nr. 1 C-dur, KV 279 (189d) - 13:54
    I. Allegro - 4:58
  • II. Andante - 5:26
  • III. Allegro - 3:3012 Variationen über ein Menuett von J. C. Fischer, KV 179 (189a) - 12:43Sonate Nr. 2 F-dur, KV 280 (189e) - 14:11
    I. Allegro assai - 4:48
  • II. Adagio - 6:28
  • III. Presto - 2:556 Variationen über «Mio caro Adone», KV 180 (173c) - 7:24Sonate Nr. 3 B-dur, KV 281 (189f) - 14:20
    I. Allegro moderato - 4:45
  • II. Andante amoroso - 5:07
  • III. Rondeau: Allegro - 4:29
    _____
    Recorded: Westvest Church, Schiedam, Netherlands, 26–27 October 2004
    CD 7: Sonatas and Variations
    Sonate Nr. 7 C-dur, KV 309 (284b) - 16:28
    I. Allegro con spirito - 5:39
  • II. Andante un poco adagio - 4:57
  • III. Rondeau: Allegretto grazioso - 5:52Variationen über «Come un agnello», KV 460 - 5:47Sonate Nr. 8 a-moll, KV 310 (300d) - 18:08
    I. Allegro maestoso - 5:31
  • II. Andante cantabile con espressione - 9:41
  • III. Presto - 2:5612 Variationen über «Ah, vous dirai-je, Maman», KV 265 (300e) - 11:58Sonate Nr. 9 D-dur, KV 311 (284c) - 16:06
    I. Allegro con spirito - 4:46
  • II. Andantino con espressione - 5:14
  • III. Rondeau: Allegro - 6:06
    _____
    Recorded: Westvest Church, Schiedam, Netherlands, 28 October 2004 [1-8], 4 May 2005 [9-11]
    CD 8: Sonatas and Dances
    Sonate Nr. 11 A-dur, KV 331 (300i) - 23:32
    I. Tema con Variazioni - 13:47
  • II. Menuetto - 6:14
  • III. Alla turca: Allegretto - 3:318 Menuette, KV 315a - 14:03
    Nr. 1 C-dur - 1:44
  • Nr. 2 G-dur - 1:43
  • Nr. 3 D-dur - 1:32
  • Nr. 4 C-dur - 1:49
  • Nr. 5 F-dur - 1:46
  • Nr. 6 D-dur - 1:51
  • Nr. 7 A-dur - 1:31
  • Nr. 8 G-dur - 2:07Sonate Nr. 12 F-dur, KV 332 (300k) - 18:38
    I. Allegro - 6:40
  • II. Adagio - 4:47
  • III. Allegro assai - 7:116 deutsche Tänze, KV 509 - 11:25
    _____
    Recorded: Westvest Church, Schiedam, Netherlands, 29 April & 3 May 2005
    CD 9: Mozart and polyphony
    Präludium und Fuge C-dur, KV 394 (383a) - 9:37
    Präludium - 4:38
  • Fuge - 4:59Sonate Nr. 15 F-dur, KV 533 - 25:11
    I. Allegro - 8:16
  • II. Andante cantabile - 10:38
  • III. Allegretto - 6:18Suite C-dur, KV 399 (385i) - 11:15
    I. Ouvertüre - 4:38
  • II. Allemande - 3:58
  • III. Courante - 2:39Eine kleine Gigue, KV 574 - 1:37
  • Marche funèbre c-moll, KV 453a - 2:26
  • Präludium f-moll, KV Anh. 32 (383C) - 1:59Sonate Nr. 16 C-dur, KV 545 - 12:48
    I. Allegro - 4:28
  • II. Andante - 6:23
  • III. Rondo - 1:582 kleine Fugen, KV 154a - 0:56
    _____
    Recorded: Hervormde Kerk, Rhoon, Netherlands, 22–24 November 2005
    CD 10: Miscellaneous keyboard works
    Ouvertüre zu «Die Entführung aus dem Serail», KV 384 - 4:11
  • Adagio F-dur, KV Anh. 206a (A65) - 7:29
  • Modulierendes Präludium (F-e), KV deest - 4:06
  • Adagio C-dur, KV 356 (617a) - 3:05
  • 6 Variationen über ein eigenes Thema, KV 54 (547b) - 6:32
  • Marsch C-dur, KV 408 (383e) - 3:29
  • Minuet D-dur, KV 355 (576b) - 5:44
  • Andante F-dur, KV 616 - 7:02
  • Contredanse D-dur «Das Donnerwetter», KV 534 - 0:52
  • Capriccio C-dur, KV 395 (300g) - 4:11Drei Klavierstücke - 14:19
    I. Allegro g-moll, KV 312 - 5:18
  • II. Andantino Es-dur, KV 236 - 2:14
  • III. Allegro B-dur, KV 400 - 6:46
    _____
    Recorded: Hervormde Kerk, Rhoon, Netherlands, 4–7 October [1–9] & 22–24 November 2005 [10-13]
    CD 11: Mozart's childhood
    8 Variationen über «Laat ons juichen, Batavieren!», KV 24 (Anh. 208) - 5:31
  • Andante C-dur, KV 1a - 0:22
  • Allegro C-dur, KV 1b - 0:16
  • Allegro F-dur, KV 1c - 0:36
  • Minuet F-dur, KV 1d - 1:02
  • Minuet G-dur, KV 1e - 1:42
  • Minuet F-dur, KV 2 - 0:49
  • Allegro B-dur, KV 3 - 1:20
  • Minuet F-dur, KV 4 - 1:13
  • Minuet F-dur, KV 5 - 0:57
  • Allegro C-dur, KV 9a (5a) - 2:45
  • Klavierstück F-dur, KV 33B - 1:01
  • Minuet D-dur, KV 61g Nr. 2 - 1:48
  • Klavierstück B-dur, KV deest - 1:41Londoner Skizzenbuch, KV Anh. 109b (15a–15ss) - 35:07
    Skizze Nr. 1 F-dur - 0:42
  • Skizze Nr. 2 C-dur - 0:37
  • Skizze Nr. 3 G-dur - 0:27
  • Skizze Nr. 4 D-dur - 1:02
  • Skizze Nr. 5 G-dur - 0:40
  • Skizze Nr. 6 C-dur - 0:33
  • Skizze Nr. 8 F-dur - 0:20
  • Skizzen Nr. 9 A-dur und Nr. 10 a-moll - 1:14
  • Skizze Nr. 11 A-dur - 0:49
  • Skizze Nr. 12 F-dur - 0:32
  • Skizze Nr. 13 C-dur - 0:52
  • Skizze Nr. 14 D-dur - 1:21
  • Skizze Nr. 15 g-moll - 1:29
  • Skizze Nr. 16 B-dur - 1:27
  • Skizze Nr. 17 g-moll - 0:54
  • Skizze Nr. 18 C-dur - 0:36
  • Skizze Nr. 19 F-dur - 2:19
  • Skizze Nr. 20 d-moll - 0:59
  • Skizze Nr. 21 F-dur - 1:44
  • Skizze Nr. 22 B-dur - 1:19
  • Skizze Nr. 23 F-dur - 0:54
  • Skizze Nr. 24 G-dur - 0:39
  • Skizze Nr. 25 c-moll - 1:17
  • Skizze Nr. 26 B-dur - 0:56
  • Skizze Nr. 27 D-dur - 0:53
  • Skizze Nr. 28 Es-dur - 1:30
  • Skizze Nr. 30 Es-dur - 0:31
  • Skizze Nr. 31 As-dur - 0:28
  • Skizze Nr. 32 B-dur - 1:21
  • Skizze Nr. 33 F-dur - 1:40
  • Skizze Nr. 34 B-dur - 1:17
  • Skizze Nr. 35 Es-dur - 1:03
  • Skizze Nr. 36 B-dur - 0:28
  • Skizze Nr. 37 Es-dur - 0:35
  • Skizze Nr. 39 F-dur - 0:24
  • Skizzen Nr. 40 B-dur und Nr. 41 Es-dur - 1:18Balletmusik aus «Ascanio in Alba», KV 111 - 8:06
  • 7 Variationen über «Willem van Nassau», KV 25 - 6:23
    _____
    Recorded: Hervormde Kerk, Rhoon, Netherlands, 22–24 November 2005
    CD 12: Keyboard works 4-hands, Vol. 1
    Sonate zu vier Händen D-dur, KV 381 (123a) - 18:29
    I. Allegro - 5:41
  • II. Andante - 8:23
  • III. Allegro molto - 4:25Fuge g-moll, KV 401 (375e) - 3:39Sonate zu vier Händen F-dur, KV 497 - 33:33
    I. Adagio. — Allegro di molto - 12:16
  • II. Andante - 13:31
  • III. Allegro - 7:46
    _____
    Ursula Dütschler (piano secondo)
    Recorded: Maria Minor, Utrecht, Netherlands, 12–14 December 2001 [1-3], Doopsgezinde Remontsrantse Kerk, Deventer, Netherlands, 11–13 July 2001 [4-7]
    CD 13: Keyboard works 4-hands, Vol. 2
    Sonate zu vier Händen C-dur, KV 19d - 15:07
    I. Allegro - 6:17
  • II. Menuetto - 3:12
  • III. Rondeau: Allegretto - 5:38Fantasie f-moll, KV 608 - 9:10
  • Andante mit Variationen G-dur, KV 501 - 7:50Sonate zu vier Händen C-dur, KV 521 - 28:06
    I. Allegro - 13:15
  • II. Andante - 6:40
  • III. Allegretto - 8:11
    _____
    Ursula Dütschler (piano primo)
    Recorded: Doopsgezinde Remontsrantse Kerk, Deventer, Netherlands, 11–13 July 2001 [1-5]; Maria Minor, Utrecht, Netherlands, 12–14 December 2001 [6-8]
    CD 14: Keyboard works 4-hands and two pianos
    Sonate zu vier Händen B-dur, KV 358 (186c) - 16:48
    I. Allegro - 5:37
  • II. Adagio - 6:52
  • III. Molto presto - 4:18
    Ursula Dütschler (piano primo)
    Recorded: Doopsgezinde Remontsrantse Kerk, Deventer, Netherlands, 11–13 July 2001
    Adagio und Allegro f-moll, KV 594 - 8:59
    Ursula Dütschler (piano secondo)
    Recorded: Maria Minor, Utrecht, Netherlands, 12–14 December 2001
    Fuge für zwei Klaviere c-moll, KV 426 - 4:16
    Ursula Dütschler (piano primo)
    Recorded: Maria Minor, Utrecht, Netherlands, 12–14 December 2001
    Sonate für zwei Klaviere D-dur, KV 448 (375a) - 27:32
    I. Allegro con spirito - 11:25
  • II. Andante - 9:30
  • III. Molto allegro - 6:37
    Ursula Dütschler (piano secondo)
    Recorded: Maria Minor, Utrecht, Netherlands, 12–14 December 2001

  • -

    EAC logs / Отчёты EACCD 1: Sonatas and Fantasies

    EAC extraction logfile from 7. June 2009, 15:16 for CDWolfgang Amadeus Mozart / Complete Keyboard Works - Sonatas and Fantasies (disc 1)
    Used drive : LITE-ON DVDRW SHM-165H6S Adapter: 6 ID: 0Read mode : Secure with NO C2, accurate stream, disable cacheRead offset correction : 6Overread into Lead-In and Lead-Out : No
    Used output format : C:\Program Files\Exact Audio Copy\flac.exe (User Defined Encoder) 128 kBit/s Additional command line options : -V -8 -T "artist=%a" -T "title=%t" -T "album=%g" -T "date=%y" -T "tracknumber=%n" -T "genre=%m" %s
    Other options : Fill up missing offset samples with silence : Yes Delete leading and trailing silent blocks : No Installed external ASPI interface
    Track 1 Filename F:\Music\EACrips\Wolfgang Amadeus Mozart - 1997 - Complete Keyboard Works - Sonatas and Fantasies (disc 1)\01 - Sonata in B flat Major, KV 333 - I. Allegro.wav
    Pre-gap length 0:00:02.00
    Peak level 86.9 % Track quality 100.0 % Test CRC FD91EEA4 Copy CRC FD91EEA4 Copy OK
    Track 2 Filename F:\Music\EACrips\Wolfgang Amadeus Mozart - 1997 - Complete Keyboard Works - Sonatas and Fantasies (disc 1)\02 - Sonata in B flat Major, KV 333 - II. Andante cantabile.wav
    Pre-gap length 0:00:02.00
    Peak level 53.2 % Track quality 100.0 % Test CRC D95B007A Copy CRC D95B007A Copy OK
    Track 3 Filename F:\Music\EACrips\Wolfgang Amadeus Mozart - 1997 - Complete Keyboard Works - Sonatas and Fantasies (disc 1)\03 - Sonata in B flat Major, KV 333 - III. Allegretto grazioso.wav
    Pre-gap length 0:00:02.00
    Peak level 82.3 % Track quality 100.0 % Test CRC 33BD6483 Copy CRC 33BD6483 Copy OK
    Track 4 Filename F:\Music\EACrips\Wolfgang Amadeus Mozart - 1997 - Complete Keyboard Works - Sonatas and Fantasies (disc 1)\04 - Fantasy in D Minor, KV 397.wav
    Pre-gap length 0:00:02.00
    Peak level 85.7 % Track quality 100.0 % Test CRC 7B791EA5 Copy CRC 7B791EA5 Copy OK
    Track 5 Filename F:\Music\EACrips\Wolfgang Amadeus Mozart - 1997 - Complete Keyboard Works - Sonatas and Fantasies (disc 1)\05 - Fantasy in C Minor, KV 396.wav
    Pre-gap length 0:00:02.00
    Peak level 77.5 % Track quality 100.0 % Test CRC 86DB5D67 Copy CRC 86DB5D67 Copy OK
    Track 6 Filename F:\Music\EACrips\Wolfgang Amadeus Mozart - 1997 - Complete Keyboard Works - Sonatas and Fantasies (disc 1)\06 - Sonata in C Major, KV 330 - I. Allegro moderato.wav
    Pre-gap length 0:00:02.00
    Peak level 66.2 % Track quality 100.0 % Test CRC 2715BAB7 Copy CRC 2715BAB7 Copy OK
    Track 7 Filename F:\Music\EACrips\Wolfgang Amadeus Mozart - 1997 - Complete Keyboard Works - Sonatas and Fantasies (disc 1)\07 - Sonata in C Major, KV 330 - II. Andante cantabile.wav
    Pre-gap length 0:00:02.00
    Peak level 50.3 % Track quality 100.0 % Test CRC EFE922AA Copy CRC EFE922AA Copy OK
    Track 8 Filename F:\Music\EACrips\Wolfgang Amadeus Mozart - 1997 - Complete Keyboard Works - Sonatas and Fantasies (disc 1)\08 - Sonata in C Major, KV 330 - III. Allegretto.wav
    Pre-gap length 0:00:02.00
    Peak level 94.5 % Track quality 100.0 % Test CRC 97D612A2 Copy CRC 97D612A2 Copy OK
    No errors occured
    End of status report

    CD 2: Sonatas, Fantasy and Adagio

    EAC extraction logfile from 7. June 2009, 20:16 for CDWolfgang Amadeus Mozart / Complete Keyboard Works - Sonatas, Fantasy and Adagio (Disc 2)
    Used drive : LITE-ON DVDRW SHM-165H6S Adapter: 6 ID: 0Read mode : Secure with NO C2, accurate stream, disable cacheRead offset correction : 6Overread into Lead-In and Lead-Out : No
    Used output format : C:\Program Files\Exact Audio Copy\flac.exe (User Defined Encoder) 128 kBit/s Additional command line options : -V -8 -T "artist=%a" -T "title=%t" -T "album=%g" -T "date=%y" -T "tracknumber=%n" -T "genre=%m" %s
    Other options : Fill up missing offset samples with silence : Yes Delete leading and trailing silent blocks : No Installed external ASPI interface
    Track 1 Filename F:\Music\EACrips\Wolfgang Amadeus Mozart - 2000 - Complete Keyboard Works - Sonatas, Fantasy and Adagio (Disc 2)\01 - Piano Sonata in B flat Major, KV 570 - I. Allegro.wav
    Peak level 47.4 % Track quality 100.0 % Test CRC 503361BE Copy CRC 503361BE Copy OK
    Track 2 Filename F:\Music\EACrips\Wolfgang Amadeus Mozart - 2000 - Complete Keyboard Works - Sonatas, Fantasy and Adagio (Disc 2)\02 - Piano Sonata in B flat Major, KV 570 - II. Adagio.wav
    Peak level 28.6 % Track quality 100.0 % Test CRC FCFD7417 Copy CRC FCFD7417 Copy OK
    Track 3 Filename F:\Music\EACrips\Wolfgang Amadeus Mozart - 2000 - Complete Keyboard Works - Sonatas, Fantasy and Adagio (Disc 2)\03 - Piano Sonata in B flat Major, KV 570 - III. Allegretto.wav
    Peak level 41.3 % Track quality 99.9 % Test CRC 1B45A10D Copy CRC 1B45A10D Copy OK
    Track 4 Filename F:\Music\EACrips\Wolfgang Amadeus Mozart - 2000 - Complete Keyboard Works - Sonatas, Fantasy and Adagio (Disc 2)\04 - Fantasy in C Minor, KV 475.wav
    Peak level 68.9 % Track quality 100.0 % Test CRC 70D1BAF7 Copy CRC 70D1BAF7 Copy OK
    Track 5 Filename F:\Music\EACrips\Wolfgang Amadeus Mozart - 2000 - Complete Keyboard Works - Sonatas, Fantasy and Adagio (Disc 2)\05 - Piano Sonata in C Minor, KV 457 - I. Molto allegro.wav
    Peak level 55.7 % Track quality 99.9 % Test CRC 81381CD6 Copy CRC 81381CD6 Copy OK
    Track 6 Filename F:\Music\EACrips\Wolfgang Amadeus Mozart - 2000 - Complete Keyboard Works - Sonatas, Fantasy and Adagio (Disc 2)\06 - Piano Sonata in C Minor, KV 457 - II. Adagio.wav
    Peak level 35.7 % Track quality 100.0 % Test CRC 546285C4 Copy CRC 546285C4 Copy OK
    Track 7 Filename F:\Music\EACrips\Wolfgang Amadeus Mozart - 2000 - Complete Keyboard Works - Sonatas, Fantasy and Adagio (Disc 2)\07 - Piano Sonata in C Minor, KV 457 - III. Allegro assai.wav
    Peak level 91.0 % Track quality 100.0 % Test CRC 914280E3 Copy CRC 914280E3 Copy OK
    Track 8 Filename F:\Music\EACrips\Wolfgang Amadeus Mozart - 2000 - Complete Keyboard Works - Sonatas, Fantasy and Adagio (Disc 2)\08 - Adagio in B Minor, KV 540.wav
    Peak level 45.6 % Track quality 100.0 % Test CRC 110F34A7 Copy CRC 110F34A7 Copy OK
    Track 9 Filename F:\Music\EACrips\Wolfgang Amadeus Mozart - 2000 - Complete Keyboard Works - Sonatas, Fantasy and Adagio (Disc 2)\09 - Piano Sonata in D Major, KV 576 - I. Allegro.wav
    Peak level 49.6 % Track quality 100.0 % Test CRC 2F251DEC Copy CRC 2F251DEC Copy OK
    Track 10 Filename F:\Music\EACrips\Wolfgang Amadeus Mozart - 2000 - Complete Keyboard Works - Sonatas, Fantasy and Adagio (Disc 2)\10 - Piano Sonata in D Major, KV 576 - II. Adagio.wav
    Peak level 28.6 % Track quality 100.0 % Test CRC D46A780E Copy CRC D46A780E Copy OK
    Track 11 Filename F:\Music\EACrips\Wolfgang Amadeus Mozart - 2000 - Complete Keyboard Works - Sonatas, Fantasy and Adagio (Disc 2)\11 - Piano Sonata in D Major, KV 576 - III. Allegretto.wav
    Peak level 55.0 % Track quality 100.0 % Test CRC 698A866F Copy CRC 698A866F Copy OK
    No errors occured
    End of status report

    CD 3: Variations, Vol. 1

    EAC extraction logfile from 7. June 2009, 21:53 for CDWolfgang Amadeus Mozart / Complete Keyboard Works - Variations, Vol. 1 (Disc 3)
    Used drive : LITE-ON DVDRW SHM-165H6S Adapter: 6 ID: 0Read mode : Secure with NO C2, accurate stream, disable cacheRead offset correction : 6Overread into Lead-In and Lead-Out : No
    Used output format : C:\Program Files\Exact Audio Copy\flac.exe (User Defined Encoder) 128 kBit/s Additional command line options : -V -8 -T "artist=%a" -T "title=%t" -T "album=%g" -T "date=%y" -T "tracknumber=%n" -T "genre=%m" %s
    Other options : Fill up missing offset samples with silence : Yes Delete leading and trailing silent blocks : No Installed external ASPI interface
    Track 1 Filename F:\Music\EACrips\Wolfgang Amadeus Mozart - 2001 - Complete Keyboard Works - Variations, Vol. 1 (Disc 3)\01 - Nine Variations on 'Lison dormait' from opera 'Julie', KV 264.wav
    Pre-gap length 0:00:02.00
    Peak level 81.4 % Track quality 100.0 % Test CRC 23B65D8D Copy CRC 23B65D8D Copy OK
    Track 2 Filename F:\Music\EACrips\Wolfgang Amadeus Mozart - 2001 - Complete Keyboard Works - Variations, Vol. 1 (Disc 3)\02 - Twelve Variations on 'La Belle Francoise', KV 353.wav
    Pre-gap length 0:00:05.62
    Peak level 65.7 % Track quality 100.0 % Test CRC F3D889B9 Copy CRC F3D889B9 Copy OK
    Track 3 Filename F:\Music\EACrips\Wolfgang Amadeus Mozart - 2001 - Complete Keyboard Works - Variations, Vol. 1 (Disc 3)\03 - Twelve Variations on 'Je suis Lindor' from 'Le barbier de Seville', KV 354.wav
    Pre-gap length 0:00:06.00
    Peak level 73.7 % Track quality 100.0 % Test CRC 02D3E8D7 Copy CRC 02D3E8D7 Copy OK
    Track 4 Filename F:\Music\EACrips\Wolfgang Amadeus Mozart - 2001 - Complete Keyboard Works - Variations, Vol. 1 (Disc 3)\04 - Eight Variations on 'Dieu d'amour' from 'Les mariages Samnites', KV 352.wav
    Pre-gap length 0:00:06.72
    Peak level 70.8 % Track quality 100.0 % Test CRC C8CB5551 Copy CRC C8CB5551 Copy OK
    Track 5 Filename F:\Music\EACrips\Wolfgang Amadeus Mozart - 2001 - Complete Keyboard Works - Variations, Vol. 1 (Disc 3)\05 - Six Variations on 'Salve tu, Domine' from 'I filiosofi ommaginarii', KV 398.wav
    Pre-gap length 0:00:06.89
    Peak level 76.5 % Track quality 100.0 % Test CRC A979BABF Copy CRC A979BABF Copy OK
    No errors occured
    End of status report

    CD 4: Variations, Vol. 2

    EAC extraction logfile from 8. June 2009, 10:08 for CDWolfgang Amadeus Mozart / Complete Keyboard Works (Disc 04) Variations, Vol. 2
    Used drive : LITE-ON DVDRW SHM-165H6S Adapter: 6 ID: 0Read mode : Secure with NO C2, accurate stream, disable cacheRead offset correction : 6Overread into Lead-In and Lead-Out : No
    Used output format : C:\Program Files\Exact Audio Copy\flac.exe (User Defined Encoder) 128 kBit/s Additional command line options : -V -8 -T "artist=%a" -T "title=%t" -T "album=%g" -T "date=%y" -T "tracknumber=%n" -T "genre=%m" %s
    Other options : Fill up missing offset samples with silence : Yes Delete leading and trailing silent blocks : No Installed external ASPI interface
    Track 1 Filename F:\Music\EACrips\Wolfgang Amadeus Mozart - 2002 - Complete Keyboard Works (Disc 04) Variations, Vol. 2\01 - Six Variations on theme from Clarinet Quintet, KV 581.wav
    Pre-gap length 0:00:02.00
    Peak level 91.2 % Track quality 100.0 % Test CRC B8D7EB47 Copy CRC B8D7EB47 Copy OK
    Track 2 Filename F:\Music\EACrips\Wolfgang Amadeus Mozart - 2002 - Complete Keyboard Works (Disc 04) Variations, Vol. 2\02 - Ten Variations on 'Unser dummer Pöbel meint' from 'La Rencontre imprévue', KV 455.wav
    Pre-gap length 0:00:06.48
    Peak level 76.1 % Track quality 100.0 % Test CRC 29DEF61D Copy CRC 29DEF61D Copy OK
    Track 3 Filename F:\Music\EACrips\Wolfgang Amadeus Mozart - 2002 - Complete Keyboard Works (Disc 04) Variations, Vol. 2\03 - Twelve Variations on an Allegretto, KV 500.wav
    Pre-gap length 0:00:05.86
    Peak level 64.9 % Track quality 100.0 % Test CRC A8CAF66B Copy CRC A8CAF66B Copy OK
    Track 4 Filename F:\Music\EACrips\Wolfgang Amadeus Mozart - 2002 - Complete Keyboard Works (Disc 04) Variations, Vol. 2\04 - Nine Variations on a Menuet, KV 573.wav
    Pre-gap length 0:00:05.04
    Peak level 87.0 % Track quality 100.0 % Test CRC CDDC2BF8 Copy CRC CDDC2BF8 Copy OK
    Track 5 Filename F:\Music\EACrips\Wolfgang Amadeus Mozart - 2002 - Complete Keyboard Works (Disc 04) Variations, Vol. 2\05 - Eight Variations on 'Ein Weib ist das herrlichste Ding' from 'Der dumme Gärtner', KV 613.wav
    Pre-gap length 0:00:07.17
    Peak level 93.2 % Track quality 100.0 % Test CRC EE45B7D7 Copy CRC EE45B7D7 Copy OK
    No errors occured
    End of status report

    CD 5: Sonatas and Rondos

    EAC extraction logfile from 8. June 2009, 11:53 for CDWolfgang Amadeus Mozart / Complete Keyboard Works (Disc 05) Sonatas and Rondos
    Used drive : LITE-ON DVDRW SHM-165H6S Adapter: 6 ID: 0Read mode : Secure with NO C2, accurate stream, disable cacheRead offset correction : 6Overread into Lead-In and Lead-Out : No
    Used output format : C:\Program Files\Exact Audio Copy\flac.exe (User Defined Encoder) 128 kBit/s Additional command line options : -V -8 -T "artist=%a" -T "title=%t" -T "album=%g" -T "date=%y" -T "tracknumber=%n" -T "genre=%m" %s
    Other options : Fill up missing offset samples with silence : Yes Delete leading and trailing silent blocks : No Installed external ASPI interface
    Track 1 Filename F:\Music\EACrips\Wolfgang Amadeus Mozart - 2004 - Complete Keyboard Works (Disc 05) Sonatas and Rondos\01 - Sonata in E flat Major, KV 282 - I. Adagio.wav
    Pre-gap length 0:00:02.00
    Peak level 50.5 % Track quality 100.0 % Test CRC 2AE0F145 Copy CRC 2AE0F145 Copy OK
    Track 2 Filename F:\Music\EACrips\Wolfgang Amadeus Mozart - 2004 - Complete Keyboard Works (Disc 05) Sonatas and Rondos\02 - Sonata in E flat Major, KV 282 - II. Menuetto I - Menuetto II.wav
    Peak level 45.6 % Track quality 100.0 % Test CRC 61B5EB4B Copy CRC 61B5EB4B Copy OK
    Track 3 Filename F:\Music\EACrips\Wolfgang Amadeus Mozart - 2004 - Complete Keyboard Works (Disc 05) Sonatas and Rondos\03 - Sonata in E flat Major, KV 282 - III. Allegro.wav
    Peak level 65.4 % Track quality 100.0 % Test CRC 798932B8 Copy CRC 798932B8 Copy OK
    Track 4 Filename F:\Music\EACrips\Wolfgang Amadeus Mozart - 2004 - Complete Keyboard Works (Disc 05) Sonatas and Rondos\04 - Rondo in D Major, KV 485.wav
    Pre-gap length 0:00:03.54
    Peak level 50.7 % Track quality 99.9 % Test CRC C8D2ACB5 Copy CRC C8D2ACB5 Copy OK
    Track 5 Filename F:\Music\EACrips\Wolfgang Amadeus Mozart - 2004 - Complete Keyboard Works (Disc 05) Sonatas and Rondos\05 - Sonata in G Major, KV 283 - I. Allegro.wav
    Peak level 57.3 % Track quality 99.9 % Test CRC E507D8C2 Copy CRC E507D8C2 Copy OK
    Track 6 Filename F:\Music\EACrips\Wolfgang Amadeus Mozart - 2004 - Complete Keyboard Works (Disc 05) Sonatas and Rondos\06 - Sonata in G Major, KV 283 - II. Andante.wav
    Peak level 36.2 % Track quality 99.9 % Test CRC 169AA9DE Copy CRC 169AA9DE Copy OK
    Track 7 Filename F:\Music\EACrips\Wolfgang Amadeus Mozart - 2004 - Complete Keyboard Works (Disc 05) Sonatas and Rondos\07 - Sonata in G Major, KV 283 - III. Presto.wav
    Peak level 72.6 % Track quality 100.0 % Test CRC 54196EF8 Copy CRC 54196EF8 Copy OK
    Track 8 Filename F:\Music\EACrips\Wolfgang Amadeus Mozart - 2004 - Complete Keyboard Works (Disc 05) Sonatas and Rondos\08 - Rondo in A Minor, KV 511.wav
    Pre-gap length 0:00:05.48
    Peak level 75.0 % Track quality 100.0 % Test CRC 7F08FE51 Copy CRC 7F08FE51 Copy OK
    Track 9 Filename F:\Music\EACrips\Wolfgang Amadeus Mozart - 2004 - Complete Keyboard Works (Disc 05) Sonatas and Rondos\09 - Sonata in D Major, KV 284 - I. Allegro.wav
    Peak level 95.9 % Track quality 99.9 % Test CRC A5D256D5 Copy CRC A5D256D5 Copy OK
    Track 10 Filename F:\Music\EACrips\Wolfgang Amadeus Mozart - 2004 - Complete Keyboard Works (Disc 05) Sonatas and Rondos\10 - Sonata in D Major, KV 284 - II. Rondeau and Polonaise.wav
    Peak level 68.2 % Track quality 100.0 % Test CRC A2EA471E Copy CRC A2EA471E Copy OK
    Track 11 Filename F:\Music\EACrips\Wolfgang Amadeus Mozart - 2004 - Complete Keyboard Works (Disc 05) Sonatas and Rondos\11 - Sonata in D Major, KV 284 - III. Andante, Theme and Twelve Variations.wav
    Peak level 56.8 % Track quality 100.0 % Test CRC 2D59357B Copy CRC 2D59357B Copy OK
    No errors occured
    End of status report

    CD 6: Early Sonatas and Variations

    EAC extraction logfile from 8. June 2009, 13:01 for CDWolfgang Amadeus Mozart / Complete Keyboard Works (Disc 06) Early Sonatas and Variations
    Used drive : LITE-ON DVDRW SHM-165H6S Adapter: 6 ID: 0Read mode : Secure with NO C2, accurate stream, disable cacheRead offset correction : 6Overread into Lead-In and Lead-Out : No
    Used output format : C:\Program Files\Exact Audio Copy\flac.exe (User Defined Encoder) 128 kBit/s Additional command line options : -V -8 -T "artist=%a" -T "title=%t" -T "album=%g" -T "date=%y" -T "tracknumber=%n" -T "genre=%m" %s
    Other options : Fill up missing offset samples with silence : Yes Delete leading and trailing silent blocks : No Installed external ASPI interface
    Track 1 Filename F:\Music\EACrips\Wolfgang Amadeus Mozart - 2004 - Complete Keyboard Works (Disc 06) Early Sonatas and Variations\01 - Sonata in C Major, KV 279 - I. Allegro.wav
    Pre-gap length 0:00:02.00
    Peak level 92.4 % Track quality 100.0 % Test CRC EA1ACCF6 Copy CRC EA1ACCF6 Copy OK
    Track 2 Filename F:\Music\EACrips\Wolfgang Amadeus Mozart - 2004 - Complete Keyboard Works (Disc 06) Early Sonatas and Variations\02 - Sonata in C Major, KV 279 - II. Andante.wav
    Peak level 58.0 % Track quality 99.9 % Test CRC FFA9CE04 Copy CRC FFA9CE04 Copy OK
    Track 3 Filename F:\Music\EACrips\Wolfgang Amadeus Mozart - 2004 - Complete Keyboard Works (Disc 06) Early Sonatas and Variations\03 - Sonata in C Major, KV 279 - III. Allegro.wav
    Peak level 77.5 % Track quality 99.9 % Test CRC F3138341 Copy CRC F3138341 Copy OK
    Track 4 Filename F:\Music\EACrips\Wolfgang Amadeus Mozart - 2004 - Complete Keyboard Works (Disc 06) Early Sonatas and Variations\04 - Twelve Variations on a Menuet, KV 179.wav
    Pre-gap length 0:00:04.14
    Peak level 83.1 % Track quality 100.0 % Test CRC FF911538 Copy CRC FF911538 Copy OK
    Track 5 Filename F:\Music\EACrips\Wolfgang Amadeus Mozart - 2004 - Complete Keyboard Works (Disc 06) Early Sonatas and Variations\05 - Sonata in F Major, KV 280 - I. Allegro assai.wav
    Pre-gap length 0:00:04.41
    Peak level 84.4 % Track quality 100.0 % Test CRC 3FE204C2 Copy CRC 3FE204C2 Copy OK
    Track 6 Filename F:\Music\EACrips\Wolfgang Amadeus Mozart - 2004 - Complete Keyboard Works (Disc 06) Early Sonatas and Variations\06 - Sonata in F Major, KV 280 - II. Adagio.wav
    Peak level 66.1 % Track quality 100.0 % Test CRC B63B03BB Copy CRC B63B03BB Copy OK
    Track 7 Filename F:\Music\EACrips\Wolfgang Amadeus Mozart - 2004 - Complete Keyboard Works (Disc 06) Early Sonatas and Variations\07 - Sonata in F Major, KV 280 - III. Presto.wav
    Peak level 89.4 % Track quality 99.9 % Test CRC C1D82D90 Copy CRC C1D82D90 Copy OK
    Track 8 Filename F:\Music\EACrips\Wolfgang Amadeus Mozart - 2004 - Complete Keyboard Works (Disc 06) Early Sonatas and Variations\08 - Six Variations on 'Mio caro Adone' from 'La Fiera di Venezisa', KV 180.wav
    Pre-gap length 0:00:04.20
    Peak level 57.6 % Track quality 100.0 % Test CRC 365CA0A8 Copy CRC 365CA0A8 Copy OK
    Track 9 Filename F:\Music\EACrips\Wolfgang Amadeus Mozart - 2004 - Complete Keyboard Works (Disc 06) Early Sonatas and Variations\09 - Sonata in B flat Major, KV 281 - I. Allegro.wav
    Pre-gap length 0:00:04.18
    Peak level 83.8 % Track quality 100.0 % Test CRC F24F72F5 Copy CRC F24F72F5 Copy OK
    Track 10 Filename F:\Music\EACrips\Wolfgang Amadeus Mozart - 2004 - Complete Keyboard Works (Disc 06) Early Sonatas and Variations\10 - Sonata in B flat Major, KV 281 - II. Andante amoroso.wav
    Peak level 47.8 % Track quality 100.0 % Test CRC 4AF8367A Copy CRC 4AF8367A Copy OK
    Track 11 Filename F:\Music\EACrips\Wolfgang Amadeus Mozart - 2004 - Complete Keyboard Works (Disc 06) Early Sonatas and Variations\11 - Sonata in B flat Major, KV 281 - III. Rondeau- allegro.wav
    Peak level 84.1 % Track quality 100.0 % Test CRC BE1B460B Copy CRC BE1B460B Copy OK
    No errors occured
    End of status report

    CD 7: Sonatas and Variations

    EAC extraction logfile from 8. June 2009, 14:21 for CDWolfgang Amadeus Mozart / Complete Keyboard Works (Disc 07) Sonatas and Variations
    Used drive : LITE-ON DVDRW SHM-165H6S Adapter: 6 ID: 0Read mode : Secure with NO C2, accurate stream, disable cacheRead offset correction : 6Overread into Lead-In and Lead-Out : No
    Used output format : C:\Program Files\Exact Audio Copy\flac.exe (User Defined Encoder) 128 kBit/s Additional command line options : -V -8 -T "artist=%a" -T "title=%t" -T "album=%g" -T "date=%y" -T "tracknumber=%n" -T "genre=%m" %s
    Other options : Fill up missing offset samples with silence : Yes Delete leading and trailing silent blocks : No Installed external ASPI interface
    Track 1 Filename F:\Music\EACrips\Wolfgang Amadeus Mozart - 2005 - Complete Keyboard Works (Disc 07) Sonatas and Variations\01 - Sonata in C Major, KV 309 - I. Allegro con spirito.wav
    Pre-gap length 0:00:02.00
    Peak level 66.4 % Track quality 100.0 % Test CRC E3C3C7B7 Copy CRC E3C3C7B7 Copy OK
    Track 2 Filename F:\Music\EACrips\Wolfgang Amadeus Mozart - 2005 - Complete Keyboard Works (Disc 07) Sonatas and Variations\02 - Sonata in C Major, KV 309 - II. Andante un poco adagio.wav
    Peak level 45.0 % Track quality 100.0 % Test CRC F4166C08 Copy CRC F4166C08 Copy OK
    Track 3 Filename F:\Music\EACrips\Wolfgang Amadeus Mozart - 2005 - Complete Keyboard Works (Disc 07) Sonatas and Variations\03 - Sonata in C Major, KV 309 - III. Rondeau- allegretto grazioso.wav
    Peak level 61.5 % Track quality 100.0 % Test CRC 3CBF344E Copy CRC 3CBF344E Copy OK
    Track 4 Filename F:\Music\EACrips\Wolfgang Amadeus Mozart - 2005 - Complete Keyboard Works (Disc 07) Sonatas and Variations\04 - Three Variations on 'Come un agnello' from 'Fra i due litiganti il terzo gode', KV 460.wav
    Peak level 47.6 % Track quality 99.9 % Test CRC F2090FF9 Copy CRC F2090FF9 Copy OK
    Track 5 Filename F:\Music\EACrips\Wolfgang Amadeus Mozart - 2005 - Complete Keyboard Works (Disc 07) Sonatas and Variations\05 - Sonata in A Minor, KV 310 - I. Allegro maestoso.wav
    Peak level 80.3 % Track quality 100.0 % Test CRC 582C101F Copy CRC 582C101F Copy OK
    Track 6 Filename F:\Music\EACrips\Wolfgang Amadeus Mozart - 2005 - Complete Keyboard Works (Disc 07) Sonatas and Variations\06 - Sonata in A Minor, KV 310 - II. Andante cantabile.wav
    Peak level 66.7 % Track quality 100.0 % Test CRC AEC17555 Copy CRC AEC17555 Copy OK
    Track 7 Filename F:\Music\EACrips\Wolfgang Amadeus Mozart - 2005 - Complete Keyboard Works (Disc 07) Sonatas and Variations\07 - Sonata in A Minor, KV 310 - III. Presto.wav
    Peak level 66.3 % Track quality 100.0 % Test CRC 2F3B0EFC Copy CRC 2F3B0EFC Copy OK
    Track 8 Filename F:\Music\EACrips\Wolfgang Amadeus Mozart - 2005 - Complete Keyboard Works (Disc 07) Sonatas and Variations\08 - Twelve Variations on 'Ah, vous dirai-je Maman', KV 265.wav
    Pre-gap length 0:00:04.30
    Peak level 83.7 % Track quality 100.0 % Test CRC 2CB90B78 Copy CRC 2CB90B78 Copy OK
    Track 9 Filename F:\Music\EACrips\Wolfgang Amadeus Mozart - 2005 - Complete Keyboard Works (Disc 07) Sonatas and Variations\09 - Sonata in D Major, KV 311 - I. Allegro con spirito.wav
    Pre-gap length 0:00:04.96
    Peak level 48.9 % Track quality 100.0 % Test CRC 9ADE0C07 Copy CRC 9ADE0C07 Copy OK
    Track 10 Filename F:\Music\EACrips\Wolfgang Amadeus Mozart - 2005 - Complete Keyboard Works (Disc 07) Sonatas and Variations\10 - Sonata in D Major, KV 311 - II. Andante con espressione.wav
    Peak level 35.7 % Track quality 100.0 % Test CRC BDE22E69 Copy CRC BDE22E69 Copy OK
    Track 11 Filename F:\Music\EACrips\Wolfgang Amadeus Mozart - 2005 - Complete Keyboard Works (Disc 07) Sonatas and Variations\11 - Sonata in D Major, KV 311 - III. Rondeau- allegro.wav
    Peak level 66.6 % Track quality 100.0 % Test CRC 6F8A6C59 Copy CRC 6F8A6C59 Copy OK
    No errors occured
    End of status report

    CD 8: Sonatas and Dances

    EAC extraction logfile from 8. June 2009, 15:43 for CDWolfgang Amadeus Mozart / Complete Keyboard Works (Disc 08) Sonatas and Dances
    Used drive : LITE-ON DVDRW SHM-165H6S Adapter: 6 ID: 0Read mode : Secure with NO C2, accurate stream, disable cacheRead offset correction : 6Overread into Lead-In and Lead-Out : No
    Used output format : C:\Program Files\Exact Audio Copy\flac.exe (User Defined Encoder) 128 kBit/s Additional command line options : -V -8 -T "artist=%a" -T "title=%t" -T "album=%g" -T "date=%y" -T "tracknumber=%n" -T "genre=%m" %s
    Other options : Fill up missing offset samples with silence : Yes Delete leading and trailing silent blocks : No Installed external ASPI interface
    Track 1 Filename F:\Music\EACrips\Wolfgang Amadeus Mozart - 2005 - Complete Keyboard Works (Disc 08) Sonatas and Dances\01 - Sonata in A Major, KV 331 - I. Andante grazioso. Theme and six variations.wav
    Pre-gap length 0:00:02.00
    Peak level 65.4 % Track quality 100.0 % Test CRC AD9B16B9 Copy CRC AD9B16B9 Copy OK
    Track 2 Filename F:\Music\EACrips\Wolfgang Amadeus Mozart - 2005 - Complete Keyboard Works (Disc 08) Sonatas and Dances\02 - Sonata in A Major, KV 331 - II. Menuetto.wav
    Peak level 47.2 % Track quality 100.0 % Test CRC 27D6E269 Copy CRC 27D6E269 Copy OK
    Track 3 Filename F:\Music\EACrips\Wolfgang Amadeus Mozart - 2005 - Complete Keyboard Works (Disc 08) Sonatas and Dances\03 - Sonata in A Major, KV 331 - III. Alla Turca- allegretto.wav
    Peak level 90.8 % Track quality 99.9 % Test CRC 82A40B86 Copy CRC 82A40B86 Copy OK
    Track 4 Filename F:\Music\EACrips\Wolfgang Amadeus Mozart - 2005 - Complete Keyboard Works (Disc 08) Sonatas and Dances\04 - Minuet in C, KV 315a.wav
    Pre-gap length 0:00:02.49
    Peak level 46.1 % Track quality 100.0 % Test CRC E2755450 Copy CRC E2755450 Copy OK
    Track 5 Filename F:\Music\EACrips\Wolfgang Amadeus Mozart - 2005 - Complete Keyboard Works (Disc 08) Sonatas and Dances\05 - Minuet in G, KV 315a.wav
    Peak level 37.6 % Track quality 100.0 % Test CRC 36B72F1A Copy CRC 36B72F1A Copy OK
    Track 6 Filename F:\Music\EACrips\Wolfgang Amadeus Mozart - 2005 - Complete Keyboard Works (Disc 08) Sonatas and Dances\06 - Minuet in D, KV 315a.wav
    Peak level 39.6 % Track quality 99.8 % Test CRC 5BBDA673 Copy CRC 5BBDA673 Copy OK
    Track 7 Filename F:\Music\EACrips\Wolfgang Amadeus Mozart - 2005 - Complete Keyboard Works (Disc 08) Sonatas and Dances\07 - Minuet in C, KV 315a.wav
    Peak level 40.8 % Track quality 100.0 % Test CRC 16812B23 Copy CRC 16812B23 Copy OK
    Track 8 Filename F:\Music\EACrips\Wolfgang Amadeus Mozart - 2005 - Complete Keyboard Works (Disc 08) Sonatas and Dances\08 - Minuet in F, KV 315a.wav
    Peak level 28.7 % Track quality 100.0 % Test CRC FA2DFD1E Copy CRC FA2DFD1E Copy OK
    Track 9 Filename F:\Music\EACrips\Wolfgang Amadeus Mozart - 2005 - Complete Keyboard Works (Disc 08) Sonatas and Dances\09 - Minuet in D, KV 315a.wav
    Peak level 34.1 % Track quality 100.0 % Test CRC C44668C6 Copy CRC C44668C6 Copy OK
    Track 10 Filename F:\Music\EACrips\Wolfgang Amadeus Mozart - 2005 - Complete Keyboard Works (Disc 08) Sonatas and Dances\10 - Minuet in A, KV 315a.wav
    Peak level 37.5 % Track quality 100.0 % Test CRC BFCED5E1 Copy CRC BFCED5E1 Copy OK
    Track 11 Filename F:\Music\EACrips\Wolfgang Amadeus Mozart - 2005 - Complete Keyboard Works (Disc 08) Sonatas and Dances\11 - Minuet in G, KV 315a.wav
    Peak level 41.5 % Track quality 100.0 % Test CRC FFA6008D Copy CRC FFA6008D Copy OK
    Track 12 Filename F:\Music\EACrips\Wolfgang Amadeus Mozart - 2005 - Complete Keyboard Works (Disc 08) Sonatas and Dances\12 - Sonata in F Major, KV 332 - I. Allegro.wav
    Pre-gap length 0:00:03.28
    Peak level 67.8 % Track quality 100.0 % Test CRC 71943BDB Copy CRC 71943BDB Copy OK
    Track 13 Filename F:\Music\EACrips\Wolfgang Amadeus Mozart - 2005 - Complete Keyboard Works (Disc 08) Sonatas and Dances\13 - Sonata in F Major, KV 332 - II. Adagio.wav
    Peak level 38.0 % Track quality 100.0 % Test CRC D87D2A7D Copy CRC D87D2A7D Copy OK
    Track 14 Filename F:\Music\EACrips\Wolfgang Amadeus Mozart - 2005 - Complete Keyboard Works (Disc 08) Sonatas and Dances\14 - Sonata in F Major, KV 332 - III. Allegro assai.wav
    Peak level 71.9 % Track quality 100.0 % Test CRC B26C4886 Copy CRC B26C4886 Copy OK
    Track 15 Filename F:\Music\EACrips\Wolfgang Amadeus Mozart - 2005 - Complete Keyboard Works (Disc 08) Sonatas and Dances\15 - Six German Dances, KV 509.wav
    Pre-gap length 0:00:03.54
    Peak level 77.4 % Track quality 100.0 % Test CRC 4A9098BF Copy CRC 4A9098BF Copy OK
    No errors occured
    End of status report

    CD 9: Mozart and polyphony

    EAC extraction logfile from 8. June 2009, 16:59 for CDWolfgang Amadeus Mozart / Complete Keyboard Works (Disc 09) Mozart and Polyphony
    Used drive : LITE-ON DVDRW SHM-165H6S Adapter: 6 ID: 0Read mode : Secure with NO C2, accurate stream, disable cacheRead offset correction : 6Overread into Lead-In and Lead-Out : No
    Used output format : C:\Program Files\Exact Audio Copy\flac.exe (User Defined Encoder) 128 kBit/s Additional command line options : -V -8 -T "artist=%a" -T "title=%t" -T "album=%g" -T "date=%y" -T "tracknumber=%n" -T "genre=%m" %s
    Other options : Fill up missing offset samples with silence : Yes Delete leading and trailing silent blocks : No Installed external ASPI interface
    Track 1 Filename F:\Music\EACrips\Wolfgang Amadeus Mozart - 2005 - Complete Keyboard Works (Disc 09) Mozart and Polyphony\01 - Prelude and Fugue in C Major, KV 394 - Prelude.wav
    Pre-gap length 0:00:02.00
    Peak level 85.2 % Track quality 100.0 % Test CRC EA862F1C Copy CRC EA862F1C Copy OK
    Track 2 Filename F:\Music\EACrips\Wolfgang Amadeus Mozart - 2005 - Complete Keyboard Works (Disc 09) Mozart and Polyphony\02 - Prelude and Fugue in C Major, KV 394 - Fugue.wav
    Peak level 77.1 % Track quality 100.0 % Test CRC 4C104BE6 Copy CRC 4C104BE6 Copy OK
    Track 3 Filename F:\Music\EACrips\Wolfgang Amadeus Mozart - 2005 - Complete Keyboard Works (Disc 09) Mozart and Polyphony\03 - Sonata in F Major, KV 533 - I. Allegro.wav
    Pre-gap length 0:00:04.49
    Peak level 72.5 % Track quality 100.0 % Test CRC B4B50562 Copy CRC B4B50562 Copy OK
    Track 4 Filename F:\Music\EACrips\Wolfgang Amadeus Mozart - 2005 - Complete Keyboard Works (Disc 09) Mozart and Polyphony\04 - Sonata in F Major, KV 533 - II. Andante.wav
    Peak level 46.0 % Track quality 99.9 % Test CRC E4EDC0AA Copy CRC E4EDC0AA Copy OK
    Track 5 Filename F:\Music\EACrips\Wolfgang Amadeus Mozart - 2005 - Complete Keyboard Works (Disc 09) Mozart and Polyphony\05 - Sonata in F Major, KV 533 - III. Rondo- allegretto.wav
    Peak level 58.4 % Track quality 100.0 % Test CRC 3663DD80 Copy CRC 3663DD80 Copy OK
    Track 6 Filename F:\Music\EACrips\Wolfgang Amadeus Mozart - 2005 - Complete Keyboard Works (Disc 09) Mozart and Polyphony\06 - Suite in C Major, KV 399 - I. Ouverture- grave - allegro.wav
    Pre-gap length 0:00:04.56
    Peak level 88.6 % Track quality 100.0 % Test CRC C76D1BD7 Copy CRC C76D1BD7 Copy OK
    Track 7 Filename F:\Music\EACrips\Wolfgang Amadeus Mozart - 2005 - Complete Keyboard Works (Disc 09) Mozart and Polyphony\07 - Suite in C Major, KV 399 - II. Allemande- andante.wav
    Peak level 42.0 % Track quality 99.9 % Test CRC 3D474BB7 Copy CRC 3D474BB7 Copy OK
    Track 8 Filename F:\Music\EACrips\Wolfgang Amadeus Mozart - 2005 - Complete Keyboard Works (Disc 09) Mozart and Polyphony\08 - Suite in C Major, KV 399 - III. Courante- allegretto.wav
    Peak level 51.4 % Track quality 100.0 % Test CRC 464CE425 Copy CRC 464CE425 Copy OK
    Track 9 Filename F:\Music\EACrips\Wolfgang Amadeus Mozart - 2005 - Complete Keyboard Works (Disc 09) Mozart and Polyphony\09 - Eine kleine Gigue, KV 574.wav
    Pre-gap length 0:00:03.45
    Peak level 75.6 % Track quality 100.0 % Test CRC 7A723FFE Copy CRC 7A723FFE Copy OK
    Track 10 Filename F:\Music\EACrips\Wolfgang Amadeus Mozart - 2005 - Complete Keyboard Works (Disc 09) Mozart and Polyphony\10 - Marche funèbre del Sigr Maestro Contrapunto, KV 453a.wav
    Pre-gap length 0:00:04.01
    Peak level 75.7 % Track quality 99.9 % Test CRC AC1ECE07 Copy CRC AC1ECE07 Copy OK
    Track 11 Filename F:\Music\EACrips\Wolfgang Amadeus Mozart - 2005 - Complete Keyboard Works (Disc 09) Mozart and Polyphony\11 - Prelude in F Minor, KV Anh. 32.wav
    Pre-gap length 0:00:04.00
    Peak level 59.0 % Track quality 99.9 % Test CRC D7920523 Copy CRC D7920523 Copy OK
    Track 12 Filename F:\Music\EACrips\Wolfgang Amadeus Mozart - 2005 - Complete Keyboard Works (Disc 09) Mozart and Polyphony\12 - Sonata in C Major, KV 545 - I. Allegro.wav
    Peak level 61.1 % Track quality 100.0 % Test CRC BE5B9BE7 Copy CRC BE5B9BE7 Copy OK
    Track 13 Filename F:\Music\EACrips\Wolfgang Amadeus Mozart - 2005 - Complete Keyboard Works (Disc 09) Mozart and Polyphony\13 - Sonata in C Major, KV 545 - II. Andante.wav
    Peak level 42.6 % Track quality 100.0 % Test CRC 56B31257 Copy CRC 56B31257 Copy OK
    Track 14 Filename F:\Music\EACrips\Wolfgang Amadeus Mozart - 2005 - Complete Keyboard Works (Disc 09) Mozart and Polyphony\14 - Sonata in C Major, KV 545 - III. Rondo.wav
    Peak level 45.9 % Track quality 100.0 % Test CRC 203056AC Copy CRC 203056AC Copy OK
    Track 15 Filename F:\Music\EACrips\Wolfgang Amadeus Mozart - 2005 - Complete Keyboard Works (Disc 09) Mozart and Polyphony\15 - Two short Fugues KV 154a - Fugue in D, Fugue in G.wav
    Pre-gap length 0:00:03.70
    Peak level 61.6 % Track quality 99.8 % Test CRC 75E9C345 Copy CRC 75E9C345 Copy OK
    No errors occured
    End of status report

    CD 10: Miscellaneous keyboard works

    EAC extraction logfile from 8. June 2009, 18:55 for CDWolfgang Amadeus Mozart / Complete Keyboard Works (Disc 10)
    Used drive : LITE-ON DVDRW SHM-165H6S Adapter: 6 ID: 0Read mode : Secure with NO C2, accurate stream, disable cacheRead offset correction : 6Overread into Lead-In and Lead-Out : No
    Used output format : C:\Program Files\Exact Audio Copy\flac.exe (User Defined Encoder) 128 kBit/s Additional command line options : -V -8 -T "artist=%a" -T "title=%t" -T "album=%g" -T "date=%y" -T "tracknumber=%n" -T "genre=%m" %s
    Other options : Fill up missing offset samples with silence : Yes Delete leading and trailing silent blocks : No Installed external ASPI interface
    Track 1 Filename F:\Music\EACrips\Wolfgang Amadeus Mozart - 2005 - Complete Keyboard Works (Disc 10)\01 - Ouverture to 'Die Entführung aus dem Serail', KV 384.wav
    Pre-gap length 0:00:02.00
    Peak level 100.0 % Track quality 100.0 % Test CRC F90C6436 Copy CRC F90C6436 Copy OK
    Track 2 Filename F:\Music\EACrips\Wolfgang Amadeus Mozart - 2005 - Complete Keyboard Works (Disc 10)\02 - Adagio in F Major, KV Anh. A65.wav
    Peak level 33.4 % Track quality 100.0 % Test CRC A6B175F0 Copy CRC A6B175F0 Copy OK
    Track 3 Filename F:\Music\EACrips\Wolfgang Amadeus Mozart - 2005 - Complete Keyboard Works (Disc 10)\03 - Modulating Prelude, KV 624.wav
    Pre-gap length 0:00:04.62
    Peak level 71.0 % Track quality 100.0 % Test CRC EB220502 Copy CRC EB220502 Copy OK
    Track 4 Filename F:\Music\EACrips\Wolfgang Amadeus Mozart - 2005 - Complete Keyboard Works (Disc 10)\04 - Adagio in C Major, KV 356.wav
    Peak level 22.5 % Track quality 100.0 % Test CRC 79D6A493 Copy CRC 79D6A493 Copy OK
    Track 5 Filename F:\Music\EACrips\Wolfgang Amadeus Mozart - 2005 - Complete Keyboard Works (Disc 10)\05 - Six Variations on an Allegreto, KV 54.wav
    Peak level 57.1 % Track quality 100.0 % Test CRC 87A0C4F1 Copy CRC 87A0C4F1 Copy OK
    Track 6 Filename F:\Music\EACrips\Wolfgang Amadeus Mozart - 2005 - Complete Keyboard Works (Disc 10)\06 - March in C Major, KV 408,1.wav
    Peak level 80.6 % Track quality 99.9 % Test CRC 34BF0F63 Copy CRC 34BF0F63 Copy OK
    Track 7 Filename F:\Music\EACrips\Wolfgang Amadeus Mozart - 2005 - Complete Keyboard Works (Disc 10)\07 - Minuet in D Major, KV 355.wav
    Peak level 50.7 % Track quality 100.0 % Test CRC 0A932105 Copy CRC 0A932105 Copy OK
    Track 8 Filename F:\Music\EACrips\Wolfgang Amadeus Mozart - 2005 - Complete Keyboard Works (Disc 10)\08 - Andante, KV 616.wav
    Pre-gap length 0:00:02.69
    Peak level 40.6 % Track quality 99.9 % Test CRC 86433ED8 Copy CRC 86433ED8 Copy OK
    Track 9 Filename F:\Music\EACrips\Wolfgang Amadeus Mozart - 2005 - Complete Keyboard Works (Disc 10)\09 - Contredanse in D Major, KV 534.wav
    Peak level 66.6 % Track quality 100.0 % Test CRC F19B9293 Copy CRC F19B9293 Copy OK
    Track 10 Filename F:\Music\EACrips\Wolfgang Amadeus Mozart - 2005 - Complete Keyboard Works (Disc 10)\10 - Capriccio in C Major, KV 395.wav
    Pre-gap length 0:00:01.86
    Peak level 90.4 % Track quality 100.0 % Test CRC 2F99FB4B Copy CRC 2F99FB4B Copy OK
    Track 11 Filename F:\Music\EACrips\Wolfgang Amadeus Mozart - 2005 - Complete Keyboard Works (Disc 10)\11 - Three Piano Pieces - I. Allegro in G Minor, KV 312.wav
    Peak level 59.1 % Track quality 99.9 % Test CRC 260616C2 Copy CRC 260616C2 Copy OK
    Track 12 Filename F:\Music\EACrips\Wolfgang Amadeus Mozart - 2005 - Complete Keyboard Works (Disc 10)\12 - Three Piano Pieces - II. Andantino in E flat Major, KV 236.wav
    Peak level 25.8 % Track quality 100.0 % Test CRC 8CACF291 Copy CRC 8CACF291 Copy OK
    Track 13 Filename F:\Music\EACrips\Wolfgang Amadeus Mozart - 2005 - Complete Keyboard Works (Disc 10)\13 - Three Piano Pieces - III. Allegro in B flat Major, KV 400.wav
    Peak level 57.0 % Track quality 100.0 % Test CRC 8B87EC7B Copy CRC 8B87EC7B Copy OK
    No errors occured
    End of status report

    CD 11: Mozart's childhood

    EAC extraction logfile from 8. June 2009, 20:56 for CDWolfgang Amadeus Mozart / Complete Keyboard Works (Disc 11) Mozart's Childhood
    Used drive : LITE-ON DVDRW SHM-165H6S Adapter: 6 ID: 0Read mode : Secure with NO C2, accurate stream, disable cacheRead offset correction : 6Overread into Lead-In and Lead-Out : No
    Used output format : C:\Program Files\Exact Audio Copy\flac.exe (User Defined Encoder) 128 kBit/s Additional command line options : -V -8 -T "artist=%a" -T "title=%t" -T "album=%g" -T "date=%y" -T "tracknumber=%n" -T "genre=%m" %s
    Other options : Fill up missing offset samples with silence : Yes Delete leading and trailing silent blocks : No Installed external ASPI interface
    Track 1 Filename F:\Music\EACrips\Wolfgang Amadeus Mozart - 2005 - Complete Keyboard Works (Disc 11) Mozart's Childhood\01 - Eight Variations on 'Laat ons juichen, Batavieren!', KV 24.wav
    Pre-gap length 0:00:02.00
    Peak level 48.5 % Track quality 99.9 % Test CRC 56622F58 Copy CRC 56622F58 Copy OK
    Track 2 Filename F:\Music\EACrips\Wolfgang Amadeus Mozart - 2005 - Complete Keyboard Works (Disc 11) Mozart's Childhood\02 - Andante in C, KV 1a.wav
    Pre-gap length 0:00:03.14
    Peak level 28.9 % Track quality 100.0 % Test CRC F3BB4418 Copy CRC F3BB4418 Copy OK
    Track 3 Filename F:\Music\EACrips\Wolfgang Amadeus Mozart - 2005 - Complete Keyboard Works (Disc 11) Mozart's Childhood\03 - Allegro in C, KV 1b.wav
    Peak level 34.4 % Track quality 100.0 % Test CRC E2AC73FE Copy CRC E2AC73FE Copy OK
    Track 4 Filename F:\Music\EACrips\Wolfgang Amadeus Mozart - 2005 - Complete Keyboard Works (Disc 11) Mozart's Childhood\04 - Allegro del Sgr. Wolfgango Mozart 11ten Decembris 1761 in F, KV 1c.wav
    Peak level 33.0 % Track quality 100.0 % Test CRC 5B858DE6 Copy CRC 5B858DE6 Copy OK
    Track 5 Filename F:\Music\EACrips\Wolfgang Amadeus Mozart - 2005 - Complete Keyboard Works (Disc 11) Mozart's Childhood\05 - Menuetto del Sgr. Wolfgango Mozart 16to Decembris 1761 in F, KV 1d.wav
    Peak level 31.8 % Track quality 99.8 % Test CRC 51D38767 Copy CRC 51D38767 Copy OK
    Track 6 Filename F:\Music\EACrips\Wolfgang Amadeus Mozart - 2005 - Complete Keyboard Works (Disc 11) Mozart's Childhood\06 - Minuet and Trio in G, KV 1e,f.wav
    Peak level 35.5 % Track quality 100.0 % Test CRC E88ED978 Copy CRC E88ED978 Copy OK
    Track 7 Filename F:\Music\EACrips\Wolfgang Amadeus Mozart - 2005 - Complete Keyboard Works (Disc 11) Mozart's Childhood\07 - Minuet in F, KV 2.wav
    Pre-gap length 0:00:03.74
    Peak level 30.7 % Track quality 100.0 % Test CRC 3DD78FF1 Copy CRC 3DD78FF1 Copy OK
    Track 8 Filename F:\Music\EACrips\Wolfgang Amadeus Mozart - 2005 - Complete Keyboard Works (Disc 11) Mozart's Childhood\08 - Allegro in B flat Major, KV 3.wav
    Peak level 31.6 % Track quality 100.0 % Test CRC 9D59177E Copy CRC 9D59177E Copy OK
    Track 9 Filename F:\Music\EACrips\Wolfgang Amadeus Mozart - 2005 - Complete Keyboard Works (Disc 11) Mozart's Childhood\09 - Minuet in F, KV 4.wav
    Peak level 43.7 % Track quality 100.0 % Test CRC EE0E9863 Copy CRC EE0E9863 Copy OK
    Track 10 Filename F:\Music\EACrips\Wolfgang Amadeus Mozart - 2005 - Complete Keyboard Works (Disc 11) Mozart's Childhood\10 - Minuet in F, KV 5.wav
    Peak level 38.0 % Track quality 100.0 % Test CRC 70DC07A5 Copy CRC 70DC07A5 Copy OK
    Track 11 Filename F:\Music\EACrips\Wolfgang Amadeus Mozart - 2005 - Complete Keyboard Works (Disc 11) Mozart's Childhood\11 - Allegro in C, KV 9a.wav
    Peak level 75.6 % Track quality 100.0 % Test CRC 7206A9DC Copy CRC 7206A9DC Copy OK
    Track 12 Filename F:\Music\EACrips\Wolfgang Amadeus Mozart - 2005 - Complete Keyboard Works (Disc 11) Mozart's Childhood\12 - Klavierstück in F, KV 338.wav
    Peak level 43.9 % Track quality 100.0 % Test CRC 68622382 Copy CRC 68622382 Copy OK
    Track 13 Filename F:\Music\EACrips\Wolfgang Amadeus Mozart - 2005 - Complete Keyboard Works (Disc 11) Mozart's Childhood\13 - Minuet in D, KV 61g II.wav
    Peak level 40.5 % Track quality 99.9 % Test CRC 97EDF08F Copy CRC 97EDF08F Copy OK
    Track 14 Filename F:\Music\EACrips\Wolfgang Amadeus Mozart - 2005 - Complete Keyboard Works (Disc 11) Mozart's Childhood\14 - Klavierstück in B flat Major, KV Deest.wav
    Peak level 43.7 % Track quality 100.0 % Test CRC 27546ACF Copy CRC 27546ACF Copy OK
    Track 15 Filename F:\Music\EACrips\Wolfgang Amadeus Mozart - 2005 - Complete Keyboard Works (Disc 11) Mozart's Childhood\15 - London Sketchbook, KV 15 (German Dance).wav
    Peak level 35.7 % Track quality 100.0 % Test CRC A5B5D8A3 Copy CRC A5B5D8A3 Copy OK
    Track 16 Filename F:\Music\EACrips\Wolfgang Amadeus Mozart - 2005 - Complete Keyboard Works (Disc 11) Mozart's Childhood\16 - London Sketchbook, KV 15 (Contredance).wav
    Peak level 47.8 % Track quality 99.7 % Test CRC FFDD7B81 Copy CRC FFDD7B81 Copy OK
    Track 17 Filename F:\Music\EACrips\Wolfgang Amadeus Mozart - 2005 - Complete Keyboard Works (Disc 11) Mozart's Childhood\17 - London Sketchbook, KV 15 (Minuet).wav
    Peak level 34.4 % Track quality 100.0 % Test CRC 64B6F918 Copy CRC 64B6F918 Copy OK
    Track 18 Filename F:\Music\EACrips\Wolfgang Amadeus Mozart - 2005 - Complete Keyboard Works (Disc 11) Mozart's Childhood\18 - London Sketchbook, KV 15 (Moderato).wav
    Peak level 44.4 % Track quality 100.0 % Test CRC 0F7A6C9C Copy CRC 0F7A6C9C Copy OK
    Track 19 Filename F:\Music\EACrips\Wolfgang Amadeus Mozart - 2005 - Complete Keyboard Works (Disc 11) Mozart's Childhood\19 - London Sketchbook, KV 15 (Contredance).wav
    Peak level 56.5 % Track quality 99.7 % Test CRC 51E3BF8E Copy CRC 51E3BF8E Copy OK
    Track 20 Filename F:\Music\EACrips\Wolfgang Amadeus Mozart - 2005 - Complete Keyboard Works (Disc 11) Mozart's Childhood\20 - London Sketchbook, KV 15 (Minuet).wav
    Peak level 42.7 % Track quality 100.0 % Test CRC 3669B30F Copy CRC 3669B30F Copy OK
    Track 21 Filename F:\Music\EACrips\Wolfgang Amadeus Mozart - 2005 - Complete Keyboard Works (Disc 11) Mozart's Childhood\21 - London Sketchbook, KV 15 (Contredance).wav
    Peak level 50.6 % Track quality 100.0 % Test CRC 31E31B95 Copy CRC 31E31B95 Copy OK
    Track 22 Filename F:\Music\EACrips\Wolfgang Amadeus Mozart - 2005 - Complete Keyboard Works (Disc 11) Mozart's Childhood\22 - London Sketchbook, KV 15 (Minuet and Trio).wav
    Peak level 59.3 % Track quality 100.0 % Test CRC B491E95E Copy CRC B491E95E Copy OK
    Track 23 Filename F:\Music\EACrips\Wolfgang Amadeus Mozart - 2005 - Complete Keyboard Works (Disc 11) Mozart's Childhood\23 - London Sketchbook, KV 15 (Contredance).wav
    Peak level 62.2 % Track quality 100.0 % Test CRC 6C3E9A02 Copy CRC 6C3E9A02 Copy OK
    Track 24 Filename F:\Music\EACrips\Wolfgang Amadeus Mozart - 2005 - Complete Keyboard Works (Disc 11) Mozart's Childhood\24 - London Sketchbook, KV 15 (Minuet).wav
    Peak level 28.5 % Track quality 100.0 % Test CRC FC813A89 Copy CRC FC813A89 Copy OK
    Track 25 Filename F:\Music\EACrips\Wolfgang Amadeus Mozart - 2005 - Complete Keyboard Works (Disc 11) Mozart's Childhood\25 - London Sketchbook, KV 15 (Andante).wav
    Peak level 39.6 % Track quality 100.0 % Test CRC 71006B08 Copy CRC 71006B08 Copy OK
    Track 26 Filename F:\Music\EACrips\Wolfgang Amadeus Mozart - 2005 - Complete Keyboard Works (Disc 11) Mozart's Childhood\26 - London Sketchbook, KV 15 (Adagio).wav
    Peak level 39.1 % Track quality 100.0 % Test CRC FED82510 Copy CRC FED82510 Copy OK
    Track 27 Filename F:\Music\EACrips\Wolfgang Amadeus Mozart - 2005 - Complete Keyboard Works (Disc 11) Mozart's Childhood\27 - London Sketchbook, KV 15 (Presto).wav
    Peak level 80.2 % Track quality 100.0 % Test CRC 82BBAEC7 Copy CRC 82BBAEC7 Copy OK
    Track 28 Filename F:\Music\EACrips\Wolfgang Amadeus Mozart - 2005 - Complete Keyboard Works (Disc 11) Mozart's Childhood\28 - London Sketchbook, KV 15 (Andante).wav
    Peak level 45.4 % Track quality 100.0 % Test CRC F6F5C853 Copy CRC F6F5C853 Copy OK
    Track 29 Filename F:\Music\EACrips\Wolfgang Amadeus Mozart - 2005 - Complete Keyboard Works (Disc 11) Mozart's Childhood\29 - London Sketchbook, KV 15 (Gigue).wav
    Peak level 65.7 % Track quality 100.0 % Test CRC EAC2B93D Copy CRC EAC2B93D Copy OK
    Track 30 Filename F:\Music\EACrips\Wolfgang Amadeus Mozart - 2005 - Complete Keyboard Works (Disc 11) Mozart's Childhood\30 - London Sketchbook, KV 15 (German Dance).wav
    Peak level 40.2 % Track quality 100.0 % Test CRC 16D6C3CC Copy CRC 16D6C3CC Copy OK
    Track 31 Filename F:\Music\EACrips\Wolfgang Amadeus Mozart - 2005 - Complete Keyboard Works (Disc 11) Mozart's Childhood\31 - London Sketchbook, KV 15 (Allegro).wav
    Peak level 68.1 % Track quality 100.0 % Test CRC E68685E3 Copy CRC E68685E3 Copy OK
    Track 32 Filename F:\Music\EACrips\Wolfgang Amadeus Mozart - 2005 - Complete Keyboard Works (Disc 11) Mozart's Childhood\32 - London Sketchbook, KV 15 (Siciliano).wav
    Peak level 50.8 % Track quality 100.0 % Test CRC 1692E896 Copy CRC 1692E896 Copy OK
    Track 33 Filename F:\Music\EACrips\Wolfgang Amadeus Mozart - 2005 - Complete Keyboard Works (Disc 11) Mozart's Childhood\33 - London Sketchbook, KV 15 (Allegretto).wav
    Peak level 62.7 % Track quality 100.0 % Test CRC 793A5CEF Copy CRC 793A5CEF Copy OK
    Track 34 Filename F:\Music\EACrips\Wolfgang Amadeus Mozart - 2005 - Complete Keyboard Works (Disc 11) Mozart's Childhood\34 - London Sketchbook, KV 15 (Moderato).wav
    Peak level 68.2 % Track quality 100.0 % Test CRC 0CBEB648 Copy CRC 0CBEB648 Copy OK
    Track 35 Filename F:\Music\EACrips\Wolfgang Amadeus Mozart - 2005 - Complete Keyboard Works (Disc 11) Mozart's Childhood\35 - London Sketchbook, KV 15 (Allegro).wav
    Peak level 80.2 % Track quality 100.0 % Test CRC 8FB2C666 Copy CRC 8FB2C666 Copy OK
    Track 36 Filename F:\Music\EACrips\Wolfgang Amadeus Mozart - 2005 - Complete Keyboard Works (Disc 11) Mozart's Childhood



    Показать сообщения:    

    Текущее время: 04-Дек 21:20

    Часовой пояс: UTC + 3


    Вы не можете начинать темы
    Вы не можете отвечать на сообщения
    Вы не можете редактировать свои сообщения
    Вы не можете удалять свои сообщения
    Вы не можете голосовать в опросах
    Вы не можете прикреплять файлы к сообщениям
    Вы не можете скачивать файлы