(Classical, Piano) Пауль Хиндемит / Paul Hindemith - Ludus Tonalis, Suite "1922" (Борис Березовский / Boris Berezovsky, piano) - 2006, FLAC (image+.cue), lossless


 

[Цитировать]

Hindemith - Ludus Tonalis, Suite "1922" - Berezovsky
Жанр: Classical, Piano
Страна-производитель диска: EU
Год издания диска: 2006
Издатель (лейбл): Warner Classics
Номер по каталогу: 2564 63412-2
Дата записи: 02/2006
Аудиокодек: FLAC
Тип рипа: image+.cue
Битрейт аудио: lossless
Продолжительность: 72.11
Источник: собственный рип
Наличие сканов в содержимом раздачи: да
Исполнители: Борис Березовский, фортепиано

Треклист:

01-25. Ludus Tonalis
26-30. Suite "1922"
Total 72.11

Лог создания рипа:

Exact Audio Copy V1.0 beta 3 from 29. August 2011
Отчёт EAC об извлечении, выполненном 29. мая 2015, 16:59
Boris Berezovsky / Hindemith: Ludus Tonalis & Suite "1922"
Дисковод: Optiarc DVD RW AD-7260S Adapter: 0 ID: 1
Режим чтения : ДостоверностьИспользование точного потока : ДаОтключение кэша аудио : ДаИспользование указателей C2 : Нет
Коррекция смещения при чтении : 48Способность читать области Lead-in и Lead-out : НетЗаполнение пропущенных сэмплов тишиной : ДаУдаление блоков с тишиной в начале и конце : НетПри вычислениях CRC использовались нулевые сэмплы : ДаИнтерфейс : Встроенный Win32-интерфейс для Win NT/2000
Выходной формат : Пользовательский кодировщикВыбранный битрейт : 896 kBit/sКачество : ВысокийДобавление ID3-тега : НетУтилита сжатия : C:\Program Files\FLAC Frontend\tools\flac.exeДополнительные параметры : -V -8 -T "Date=%year%" -T "Genre=%genre%" %source%
TOC извлечённого CD
Трек | Старт | Длительность | Начальный сектор | Конечный сектор --------------------------------------------------------------------- 1 | 0:00.00 | 3:13.02 | 0 | 14476 2 | 3:13.02 | 3:12.07 | 14477 | 28883 3 | 6:25.09 | 1:17.18 | 28884 | 34676 4 | 7:42.27 | 1:28.46 | 34677 | 41322 5 | 9:10.73 | 1:08.66 | 41323 | 46488 6 | 10:19.64 | 3:15.26 | 46489 | 61139 7 | 13:35.15 | 1:29.37 | 61140 | 67851 8 | 15:04.52 | 3:15.64 | 67852 | 82540 9 | 18:20.41 | 1:14.73 | 82541 | 88163 10 | 19:35.39 | 1:14.31 | 88164 | 93744 11 | 20:49.70 | 1:15.71 | 93745 | 99440 12 | 22:05.66 | 2:49.48 | 99441 | 112163 13 | 24:55.39 | 2:02.04 | 112164 | 121317 14 | 26:57.43 | 1:57.52 | 121318 | 130144 15 | 28:55.20 | 3:18.19 | 130145 | 145013 16 | 32:13.39 | 1:15.40 | 145014 | 150678 17 | 33:29.04 | 1:21.07 | 150679 | 156760 18 | 34:50.11 | 2:12.51 | 156761 | 166711 19 | 37:02.62 | 2:32.03 | 166712 | 178114 20 | 39:34.65 | 1:53.69 | 178115 | 186658 21 | 41:28.59 | 2:11.17 | 186659 | 196500 22 | 43:40.01 | 1:52.52 | 196501 | 204952 23 | 45:32.53 | 2:03.64 | 204953 | 214241 24 | 47:36.42 | 3:10.04 | 214242 | 228495 25 | 50:46.46 | 3:32.23 | 228496 | 244418 26 | 54:18.69 | 1:33.71 | 244419 | 251464 27 | 55:52.65 | 2:49.53 | 251465 | 264192 28 | 58:42.43 | 6:13.09 | 264193 | 292176 29 | 64:55.52 | 4:40.49 | 292177 | 313225 30 | 69:36.26 | 2:32.07 | 313226 | 324632
Характеристики диапазона извлечения и сообщения об ошибках
Выбранный диапазон
Имя файла D:\EAC\Мои раздачи\Hindemith - Ludus Tonalis, Suite 1922 - Berezovsky\Boris Berezovsky - Hindemith- Ludus Tonalis & Suite ''1922''.wav
Пиковый уровень 99.6 % Скорость извлечения 4.4 X Качество диапазона 100.0 % CRC теста 99DBB2E0 CRC копии 99DBB2E0 Копирование... OK
Ошибок не произошло
AccurateRip: сводка
Трек 1 точность не определена (достоверность 6) [F99EAF73], AccurateRip вернул [A13A2843] (AR v2)Трек 2 точность не определена (достоверность 6) [90293293], AccurateRip вернул [8CA06E37] (AR v2)Трек 3 точность не определена (достоверность 6) [AD3220E5], AccurateRip вернул [A46CF334] (AR v2)Трек 4 точность не определена (достоверность 6) [8EAFF4FB], AccurateRip вернул [4E0AA1D1] (AR v2)Трек 5 точность не определена (достоверность 6) [CBB4BCD3], AccurateRip вернул [1312CDB1] (AR v2)Трек 6 точность не определена (достоверность 6) [0DB3312F], AccurateRip вернул [68F4A916] (AR v2)Трек 7 точность не определена (достоверность 6) [4ACB78DA], AccurateRip вернул [19820079] (AR v2)Трек 8 точность не определена (достоверность 6) [68B9D420], AccurateRip вернул [1B17ABC8] (AR v2)Трек 9 точность не определена (достоверность 6) [616A1B13], AccurateRip вернул [5B327EA7] (AR v2)Трек 10 точность не определена (достоверность 6) [2738935C], AccurateRip вернул [86AE3E71] (AR v2)Трек 11 точность не определена (достоверность 6) [3D80214C], AccurateRip вернул [46D454B3] (AR v2)Трек 12 точность не определена (достоверность 6) [F473DE9B], AccurateRip вернул [CEB75FFD] (AR v2)Трек 13 точность не определена (достоверность 6) [DFA31FAB], AccurateRip вернул [B6541891] (AR v2)Трек 14 точность не определена (достоверность 6) [15FFCE92], AccurateRip вернул [87D52D27] (AR v2)Трек 15 точность не определена (достоверность 6) [EB593453], AccurateRip вернул [2A9DA21C] (AR v2)Трек 16 точность не определена (достоверность 6) [E10B3631], AccurateRip вернул [CD11B73C] (AR v2)Трек 17 точность не определена (достоверность 6) [EB599B0C], AccurateRip вернул [2323F0CE] (AR v2)Трек 18 точность не определена (достоверность 6) [F54889C3], AccurateRip вернул [7C082B3E] (AR v2)Трек 19 точность не определена (достоверность 6) [9CF778A0], AccurateRip вернул [CE307C3C] (AR v2)Трек 20 точность не определена (достоверность 6) [624784E6], AccurateRip вернул [76A64790] (AR v2)Трек 21 точность не определена (достоверность 6) [F03E9A1A], AccurateRip вернул [CB7A291B] (AR v2)Трек 22 точность не определена (достоверность 6) [D0A5955F], AccurateRip вернул [D4C8B1A2] (AR v2)Трек 23 точность не определена (достоверность 6) [20E4D855], AccurateRip вернул [3A334ABD] (AR v2)Трек 24 точность не определена (достоверность 6) [B5F2F2D6], AccurateRip вернул [8DF1A9B3] (AR v2)Трек 25 точность не определена (достоверность 6) [97F19E84], AccurateRip вернул [D209AEF6] (AR v2)Трек 26 точность не определена (достоверность 6) [B0E69D98], AccurateRip вернул [6102CDF8] (AR v2)Трек 27 точность не определена (достоверность 6) [522A9490], AccurateRip вернул [0FB15FB3] (AR v2)Трек 28 точность не определена (достоверность 6) [62994820], AccurateRip вернул [57ADE939] (AR v2)Трек 29 точность не определена (достоверность 6) [CEF4EE45], AccurateRip вернул [0CF2FAF1] (AR v2)Трек 30 точность не определена (достоверность 6) [30DDAA5B], AccurateRip вернул [F6DA6C33] (AR v2)
Ни один трек не прошёл проверки на точностьВ вашей базе может быть иной вариант штамповки диска
Конец отчёта
==== Контрольная сумма отчёта 23025FA1285E9CDDC0676F8031D2A1DDFC5FC5C05A2D868526C3F913476E97AA ====



Показать сообщения:    

Текущее время: 05-Дек 23:37

Часовой пояс: UTC + 3


Вы не можете начинать темы
Вы не можете отвечать на сообщения
Вы не можете редактировать свои сообщения
Вы не можете удалять свои сообщения
Вы не можете голосовать в опросах
Вы не можете прикреплять файлы к сообщениям
Вы не можете скачивать файлы