(Classical, Piano) Йозеф Гайдн / Joseph Haydn - Complete Music for Solo Keyboard (Ronald Brautigam, fortepiano) (15 CD) - 2008, FLAC (image+.cue), lossless


 

[Цитировать]

Haydn - Complete Music for Solo Keyboard - Brautigam
Жанр: Classical, Piano
Страна-производитель диска: EU
Год издания диска: 2008
Издатель (лейбл): BIS Records AB
Номер по каталогу: BIS-CD-1731/33
Дата записи: 1999-2004
Аудиокодек: FLAC
Тип рипа: image+.cue
Битрейт аудио: lossless
Продолжительность: 17h:06m:00s
Источник: собственный рип
Наличие сканов в содержимом раздачи: да
Исполнители: Ronald Brautigam, fortepiano

CD1:Треклист:

Sonata No. 1 in G major, Hob. XVI:8
01. I. Allegro
02. II. Menuet
03. III. Andante
04. IV. Allegro
Sonata No. 2 in C major, Hob. XVI:7
05. I. Allegro moderato
06. II. Menuet - Trio
07. III. Finale. Allegro
Sonata No. 3 in F major, Hob. XVI:9
08. I. Allegro
09. II. Menuet - Trio
10. III. Scherzo. Allegro
Sonata No. 4 in G major, Hob. XVI:G1
11. I. Allegro
12. II. Menuetto/Trio
13. III. Finale. Presto
Sonata No. 5 in G major, Hob. XVI:11
14. I. Presto
15. II. Andante
16. III. Menuet - Trio
Sonata No. 6 in C major, Hob. XVI:10
17. I. Moderato
18. II. Menuet - Trio
19. III. Finale. Presto
Sonata No. 7 in D major, Hob. XVI:D1
20. Tema. Moderato – Variation 1 – Variation 2 – Variation 3
21. II. Menuet
22. III. Finale. Allegro
Sonata No. 8 in A major, Hob. XVI:5
23. I. Allegro
24. II. Menuet - Trio
25. III. Presto
Sonata No. 9 in D major, Hob. XVI:4
26. I. [Moderato]
27. II. Menuet - Trio
Total 66.42

Лог создания рипа:

Exact Audio Copy V1.0 beta 3 from 29. August 2011
Отчёт EAC об извлечении, выполненном 29. апреля 2015, 20:16
Franz Joseph Haydn / Complete Music for Solo Keyboard - CD01
Дисковод: Optiarc DVD RW AD-7260S Adapter: 0 ID: 1
Режим чтения : Достоверность
Использование точного потока : Да
Отключение кэша аудио : Да
Использование указателей C2 : Нет
Коррекция смещения при чтении : 48
Способность читать области Lead-in и Lead-out : Нет
Заполнение пропущенных сэмплов тишиной : Да
Удаление блоков с тишиной в начале и конце : Нет
При вычислениях CRC использовались нулевые сэмплы : Да
Интерфейс : Встроенный Win32-интерфейс для Win NT/2000
Выходной формат : Пользовательский кодировщик
Выбранный битрейт : 896 kBit/s
Качество : Высокий
Добавление ID3-тега : Нет
Утилита сжатия : C:\Program Files\FLAC Frontend\tools\flac.exe
Дополнительные параметры : -V -8 -T "Date=%year%" -T "Genre=%genre%" %source%
TOC извлечённого CD
Трек | Старт | Длительность | Начальный сектор | Конечный сектор
---------------------------------------------------------------------
1 | 0:00.00 | 2:12.42 | 0 | 9941
2 | 2:12.42 | 0:56.03 | 9942 | 14144
3 | 3:08.45 | 1:02.22 | 14145 | 18816
4 | 4:10.67 | 0:43.40 | 18817 | 22081
5 | 4:54.32 | 1:07.03 | 22082 | 27109
6 | 6:01.35 | 2:05.17 | 27110 | 36501
7 | 8:06.52 | 1:27.45 | 36502 | 43071
8 | 9:34.22 | 2:04.20 | 43072 | 52391
9 | 11:38.42 | 2:46.15 | 52392 | 64856
10 | 14:24.57 | 0:53.18 | 64857 | 68849
11 | 15:18.00 | 3:27.35 | 68850 | 84409
12 | 18:45.35 | 2:23.65 | 84410 | 95199
13 | 21:09.25 | 1:28.10 | 95200 | 101809
14 | 22:37.35 | 1:24.70 | 101810 | 108179
15 | 24:02.30 | 4:21.02 | 108180 | 127756
16 | 28:23.32 | 2:38.35 | 127757 | 139641
17 | 31:01.67 | 3:11.08 | 139642 | 153974
18 | 34:13.00 | 2:45.72 | 153975 | 166421
19 | 36:58.72 | 2:52.45 | 166422 | 179366
20 | 39:51.42 | 3:44.65 | 179367 | 196231
21 | 43:36.32 | 0:52.25 | 196232 | 200156
22 | 44:28.57 | 1:48.55 | 200157 | 208311
23 | 46:17.37 | 5:56.35 | 208312 | 235046
24 | 52:13.72 | 2:13.50 | 235047 | 245071
25 | 54:27.47 | 3:40.43 | 245072 | 261614
26 | 58:08.15 | 5:15.62 | 261615 | 285301
27 | 63:24.02 | 3:17.73 | 285302 | 300149
Характеристики диапазона извлечения и сообщения об ошибках
Выбранный диапазон
Имя файла D:\EAC\Мои раздачи\Haydn - Complete Music for Solo Keyboard - Brautigam\CD01\Franz Joseph Haydn - Complete Music for Solo Keyboard - CD01.wav
Пиковый уровень 92.4 %
Скорость извлечения 4.2 X
Качество диапазона 100.0 %
CRC теста 19ACFFDC
CRC копии 19ACFFDC
Копирование... OK
Ошибок не произошло
AccurateRip: сводка
Трек 1 : извлечено точно (доверие 11) [892D4085] (AR v2)
Трек 2 : извлечено точно (доверие 11) [5AF783F4] (AR v2)
Трек 3 : извлечено точно (доверие 11) [4E556FBE] (AR v2)
Трек 4 : извлечено точно (доверие 11) [6A03C990] (AR v2)
Трек 5 : извлечено точно (доверие 11) [48FE36CD] (AR v2)
Трек 6 : извлечено точно (доверие 11) [4C682C83] (AR v2)
Трек 7 : извлечено точно (доверие 11) [B209ED5D] (AR v2)
Трек 8 : извлечено точно (доверие 11) [A9E31811] (AR v2)
Трек 9 : извлечено точно (доверие 11) [890C7C72] (AR v2)
Трек 10 : извлечено точно (доверие 11) [04167DF0] (AR v2)
Трек 11 : извлечено точно (доверие 11) [3CF6DD66] (AR v2)
Трек 12 : извлечено точно (доверие 11) [7CAB1321] (AR v2)
Трек 13 : извлечено точно (доверие 11) [F78FCFFB] (AR v2)
Трек 14 : извлечено точно (доверие 11) [CF3DC88E] (AR v2)
Трек 15 : извлечено точно (доверие 11) [2EDE6185] (AR v2)
Трек 16 : извлечено точно (доверие 11) [9611FC9B] (AR v2)
Трек 17 : извлечено точно (доверие 11) [9EEF51AF] (AR v2)
Трек 18 : извлечено точно (доверие 11) [9CAD8823] (AR v2)
Трек 19 : извлечено точно (доверие 11) [C9AA5ECB] (AR v2)
Трек 20 : извлечено точно (доверие 11) [2902C436] (AR v2)
Трек 21 : извлечено точно (доверие 11) [95CF3845] (AR v2)
Трек 22 : извлечено точно (доверие 11) [73CEB9AE] (AR v2)
Трек 23 : извлечено точно (доверие 11) [578875E2] (AR v2)
Трек 24 : извлечено точно (доверие 11) [6C5DA175] (AR v2)
Трек 25 : извлечено точно (доверие 11) [209E568F] (AR v2)
Трек 26 : извлечено точно (доверие 11) [402DAD41] (AR v2)
Трек 27 : извлечено точно (доверие 11) [0D0FF634] (AR v2)
Все треки извлечены точно
Конец отчёта
==== Контрольная сумма отчёта 4E59FA781647569987258D46303FD2A1BD9ABD9D81B882C5AD620E64A2C7F0A1 ====

CD2:Треклист:

Sonata No. 10 in C major, Hob. XVI:1
01. I. Allegro
02. II. Adagio
03. III. Menuet - Trio
Sonata No. 11 in B flat major, Hob. XVI:2
04. I. Moderato
05. II. Largo
06. III. Menuet - Trio
Sonata No. 12 in A major, Hob. XVI:12
07. I. Andante
08. II. Menuet - Trio
09. III. Finale. Allegro molto
Sonata No. 13 in G major, Hob. XVI:6
10. I. Allegro
11. II. Menuet - Trio
12. III. Adagio
13. IV. Finale. Allegro molto
Sonata No. 14 in C major, Hob. XVI:3
14. I. Allegretto
15. II. Andante
16. III. Menuet - Trio
Sonata No. 15 in E major, Hob. XVI:13
17. I. Moderato
18. II. Menuet - Trio
19. III. Finale. Presto
Total 69.55

Лог создания рипа:

Exact Audio Copy V1.0 beta 3 from 29. August 2011
Отчёт EAC об извлечении, выполненном 29. апреля 2015, 19:05
Franz Joseph Haydn / Complete Music for Solo Keyboard - CD02
Дисковод: Optiarc DVD RW AD-7260S Adapter: 0 ID: 1
Режим чтения : Достоверность
Использование точного потока : Да
Отключение кэша аудио : Да
Использование указателей C2 : Нет
Коррекция смещения при чтении : 48
Способность читать области Lead-in и Lead-out : Нет
Заполнение пропущенных сэмплов тишиной : Да
Удаление блоков с тишиной в начале и конце : Нет
При вычислениях CRC использовались нулевые сэмплы : Да
Интерфейс : Встроенный Win32-интерфейс для Win NT/2000
Выходной формат : Пользовательский кодировщик
Выбранный битрейт : 896 kBit/s
Качество : Высокий
Добавление ID3-тега : Нет
Утилита сжатия : C:\Program Files\FLAC Frontend\tools\flac.exe
Дополнительные параметры : -V -8 -T "Date=%year%" -T "Genre=%genre%" %source%
TOC извлечённого CD
Трек | Старт | Длительность | Начальный сектор | Конечный сектор
---------------------------------------------------------------------
1 | 0:00.00 | 2:51.35 | 0 | 12859
2 | 2:51.35 | 2:50.32 | 12860 | 25641
3 | 5:41.67 | 2:44.33 | 25642 | 37974
4 | 8:26.25 | 6:35.70 | 37975 | 67669
5 | 15:02.20 | 4:54.70 | 67670 | 89789
6 | 19:57.15 | 3:36.45 | 89790 | 106034
7 | 23:33.60 | 4:23.32 | 106035 | 125791
8 | 27:57.17 | 3:01.45 | 125792 | 139411
9 | 30:58.62 | 1:36.68 | 139412 | 146679
10 | 32:35.55 | 5:42.70 | 146680 | 172399
11 | 38:18.50 | 3:34.42 | 172400 | 188491
12 | 41:53.17 | 2:58.28 | 188492 | 201869
13 | 44:51.45 | 2:25.60 | 201870 | 212804
14 | 47:17.30 | 4:16.45 | 212805 | 232049
15 | 51:34.00 | 5:24.55 | 232050 | 256404
16 | 56:58.55 | 2:54.20 | 256405 | 269474
17 | 59:53.00 | 4:27.40 | 269475 | 289539
18 | 64:20.40 | 2:37.55 | 289540 | 301369
19 | 66:58.20 | 2:56.55 | 301370 | 314624
Характеристики диапазона извлечения и сообщения об ошибках
Выбранный диапазон
Имя файла D:\EAC\Мои раздачи\Haydn - Complete Music for Solo Keyboard - Brautigam\CD02\Franz Joseph Haydn - Complete Music for Solo Keyboard - CD02.wav
Пиковый уровень 94.3 %
Скорость извлечения 4.5 X
Качество диапазона 100.0 %
CRC теста 323D6CD3
CRC копии 323D6CD3
Копирование... OK
Ошибок не произошло
AccurateRip: сводка
Трек 1 : извлечено точно (доверие 10) [368B4E55] (AR v2)
Трек 2 : извлечено точно (доверие 10) [D6B5918B] (AR v2)
Трек 3 : извлечено точно (доверие 10) [090D8BE8] (AR v2)
Трек 4 : извлечено точно (доверие 10) [F75ED058] (AR v2)
Трек 5 : извлечено точно (доверие 10) [EF6EB2AB] (AR v2)
Трек 6 : извлечено точно (доверие 10) [BEDC53EF] (AR v2)
Трек 7 : извлечено точно (доверие 10) [953A776C] (AR v2)
Трек 8 : извлечено точно (доверие 10) [74DA1361] (AR v2)
Трек 9 : извлечено точно (доверие 10) [813C3B89] (AR v2)
Трек 10 : извлечено точно (доверие 10) [E55DB55F] (AR v2)
Трек 11 : извлечено точно (доверие 10) [158E7B6A] (AR v2)
Трек 12 : извлечено точно (доверие 10) [C27AD19F] (AR v2)
Трек 13 : извлечено точно (доверие 10) [E3547759] (AR v2)
Трек 14 : извлечено точно (доверие 10) [74FF3EB9] (AR v2)
Трек 15 : извлечено точно (доверие 10) [A108BB25] (AR v2)
Трек 16 : извлечено точно (доверие 10) [C5F0675A] (AR v2)
Трек 17 : извлечено точно (доверие 10) [49378261] (AR v2)
Трек 18 : извлечено точно (доверие 10) [7B04B5E7] (AR v2)
Трек 19 : извлечено точно (доверие 10) [45148DE7] (AR v2)
Все треки извлечены точно
Конец отчёта
==== Контрольная сумма отчёта A2726AFA5C6926DFE50B0FCF2C44569D33376813634A844E004DD244EE9CAFAC ====

CD3:Треклист:

Sonata No. 16 in D major, Hob. XVI:14
01. I. Allegro moderato
02. II. Menuet - Trio
03. III. Finale. Presto [Allegro]
Sonata No. 17 in E flat major, Hob. XVI:Es2
04. I. Moderato
05. II. Andante
06. III. Menuetto - Trio
Sonata No. 18 in E flat major, Hob. XVI:Es3
07. I. Allegro
08. II. Menuetto - Trio
Sonata No. 19 in E minor, Vol./Cf. Hob. XIV/47
09. I. Adagio
10. II. Allegro
11. III. Finale. Tempo di Menuet
Sonata No. 20 in B flat major, Hob. XVI:18
12. I. Allegro moderato
13. II. Moderato
Total 69.20

Лог создания рипа:

Exact Audio Copy V1.0 beta 3 from 29. August 2011
Отчёт EAC об извлечении, выполненном 29. апреля 2015, 15:53
Franz Joseph Haydn / Complete Music for Solo Keyboard - CD03
Дисковод: Optiarc DVD RW AD-7260S Adapter: 0 ID: 1
Режим чтения : Достоверность
Использование точного потока : Да
Отключение кэша аудио : Да
Использование указателей C2 : Нет
Коррекция смещения при чтении : 48
Способность читать области Lead-in и Lead-out : Нет
Заполнение пропущенных сэмплов тишиной : Да
Удаление блоков с тишиной в начале и конце : Нет
При вычислениях CRC использовались нулевые сэмплы : Да
Интерфейс : Встроенный Win32-интерфейс для Win NT/2000
Выходной формат : Пользовательский кодировщик
Выбранный битрейт : 896 kBit/s
Качество : Высокий
Добавление ID3-тега : Нет
Утилита сжатия : C:\Program Files\FLAC Frontend\tools\flac.exe
Дополнительные параметры : -V -8 -T "Date=%year%" -T "Genre=%genre%" %source%
TOC извлечённого CD
Трек | Старт | Длительность | Начальный сектор | Конечный сектор
---------------------------------------------------------------------
1 | 0:00.00 | 6:37.10 | 0 | 29784
2 | 6:37.10 | 3:15.35 | 29785 | 44444
3 | 9:52.45 | 3:04.72 | 44445 | 58316
4 | 12:57.42 | 7:26.43 | 58317 | 91809
5 | 20:24.10 | 4:20.47 | 91810 | 111356
6 | 24:44.57 | 3:05.55 | 111357 | 125286
7 | 27:50.37 | 8:23.18 | 125287 | 163029
8 | 36:13.55 | 3:40.10 | 163030 | 179539
9 | 39:53.65 | 4:23.32 | 179540 | 199296
10 | 44:17.22 | 5:00.70 | 199297 | 221866
11 | 49:18.17 | 3:18.18 | 221867 | 236734
12 | 52:36.35 | 7:05.22 | 236735 | 268631
13 | 59:41.57 | 9:38.18 | 268632 | 311999
Характеристики диапазона извлечения и сообщения об ошибках
Выбранный диапазон
Имя файла D:\EAC\Мои раздачи\Haydn - Complete Music for Solo Keyboard - Brautigam\CD03\Franz Joseph Haydn - Complete Music for Solo Keyboard - CD03.wav
Пиковый уровень 87.5 %
Скорость извлечения 4.5 X
Качество диапазона 100.0 %
CRC теста 11DD4EB0
CRC копии 11DD4EB0
Копирование... OK
Ошибок не произошло
AccurateRip: сводка
Трек 1 : извлечено точно (доверие 10) [C883743A] (AR v2)
Трек 2 : извлечено точно (доверие 10) [236AEC75] (AR v2)
Трек 3 : извлечено точно (доверие 10) [5BAF0E9D] (AR v2)
Трек 4 : извлечено точно (доверие 10) [D7C2839B] (AR v2)
Трек 5 : извлечено точно (доверие 10) [8BB918AC] (AR v2)
Трек 6 : извлечено точно (доверие 10) [EEB35FC3] (AR v2)
Трек 7 : извлечено точно (доверие 10) [101DEEC1] (AR v2)
Трек 8 : извлечено точно (доверие 10) [CB68CF84] (AR v2)
Трек 9 : извлечено точно (доверие 10) [D3FE0369] (AR v2)
Трек 10 : извлечено точно (доверие 10) [C6C8D64C] (AR v2)
Трек 11 : извлечено точно (доверие 10) [E9CDC4BC] (AR v2)
Трек 12 : извлечено точно (доверие 10) [C1B1566E] (AR v2)
Трек 13 : извлечено точно (доверие 10) [1927AC52] (AR v2)
Все треки извлечены точно
Конец отчёта
==== Контрольная сумма отчёта 8252C962FFA3ED60A9C8255AC0EC5E29C31CEDD97C6789FF74F354D9883591B2 ====

CD4:Треклист:

Sonata No. 28 in D major, Hob. XVI:5a
01. I. Moderato
02. II. Menuet - Trio
Sonata No. 29 in E flat major, Hob. XVI:45
03. I. Moderato
04. II. Andante
05. III. Finale. Allegro di molto
Sonata No. 30 in D major, Hob. XVI:19
06. I. Moderato
07. II. Andante
08. III. Finale. Allegro assai
Total 61.57

Лог создания рипа:

Exact Audio Copy V1.0 beta 3 from 29. August 2011
Отчёт EAC об извлечении, выполненном 29. апреля 2015, 14:53
- / Complete Music for Solo Keyboard - CD04
Дисковод: Optiarc DVD RW AD-7260S Adapter: 0 ID: 1
Режим чтения : Достоверность
Использование точного потока : Да
Отключение кэша аудио : Да
Использование указателей C2 : Нет
Коррекция смещения при чтении : 48
Способность читать области Lead-in и Lead-out : Нет
Заполнение пропущенных сэмплов тишиной : Да
Удаление блоков с тишиной в начале и конце : Нет
При вычислениях CRC использовались нулевые сэмплы : Да
Интерфейс : Встроенный Win32-интерфейс для Win NT/2000
Выходной формат : Пользовательский кодировщик
Выбранный битрейт : 896 kBit/s
Качество : Высокий
Добавление ID3-тега : Нет
Утилита сжатия : C:\Program Files\FLAC Frontend\tools\flac.exe
Дополнительные параметры : -V -8 -T "Date=%year%" -T "Genre=%genre%" %source%
TOC извлечённого CD
Трек | Старт | Длительность | Начальный сектор | Конечный сектор
---------------------------------------------------------------------
1 | 0:00.00 | 7:25.55 | 0 | 33429
2 | 7:25.55 | 5:18.62 | 33430 | 57341
3 | 12:44.42 | 9:22.03 | 57342 | 99494
4 | 22:06.45 | 8:17.17 | 99495 | 136786
5 | 30:23.62 | 5:25.18 | 136787 | 161179
6 | 35:49.05 | 10:48.40 | 161180 | 209819
7 | 46:37.45 | 12:09.35 | 209820 | 264529
8 | 58:47.05 | 3:28.70 | 264530 | 280199
Характеристики диапазона извлечения и сообщения об ошибках
Выбранный диапазон
Имя файла D:\EAC\Мои раздачи\Haydn - Complete Music for Solo Keyboard - Brautigam\CD04\Complete Music for Solo Keyboard - CD04.wav
Пиковый уровень 86.9 %
Скорость извлечения 4.0 X
Качество диапазона 99.9 %
CRC теста AAFFC3A2
CRC копии AAFFC3A2
Копирование... OK
Ошибок не произошло
AccurateRip: сводка
Трек 1 : извлечено точно (доверие 10) [691A1C50] (AR v2)
Трек 2 : извлечено точно (доверие 10) [8F7CA9B4] (AR v2)
Трек 3 : извлечено точно (доверие 10) [8833385F] (AR v2)
Трек 4 : извлечено точно (доверие 10) [FA6E1A37] (AR v2)
Трек 5 : извлечено точно (доверие 10) [04D42DF3] (AR v2)
Трек 6 : извлечено точно (доверие 10) [431B5832] (AR v2)
Трек 7 : извлечено точно (доверие 10) [51DCE106] (AR v2)
Трек 8 : извлечено точно (доверие 10) [BFE2B9EE] (AR v2)
Все треки извлечены точно
Конец отчёта
==== Контрольная сумма отчёта 8D9ECD0C83784DDC9CE78E64F0AF5410E0B6DFDC06B4D3B76E2B2A750AEDD216 ====

CD5:Треклист:

Sonata No. 31 in A flat major, Hob. XVI:46
01. I. Allegro moderato
02. II. Adagio
03. III. Finale. Presto
Sonata No. 32 in G minor, Hob. XVI:44
04. I. Moderato
05. II. Allegretto
Sonata No. 33 in C minor, Hob. XVI:20
06. I. Moderato
07. II. Andante con moto
08. III. Finale. Allegro
Total 67.03

Лог создания рипа:

Exact Audio Copy V1.0 beta 3 from 29. August 2011
Отчёт EAC об извлечении, выполненном 29. апреля 2015, 13:19
Franz Joseph Haydn / Haydn - Complete Music for Solo Keyboard - CD05
Дисковод: Optiarc DVD RW AD-7260S Adapter: 0 ID: 1
Режим чтения : Достоверность
Использование точного потока : Да
Отключение кэша аудио : Да
Использование указателей C2 : Нет
Коррекция смещения при чтении : 48
Способность читать области Lead-in и Lead-out : Нет
Заполнение пропущенных сэмплов тишиной : Да
Удаление блоков с тишиной в начале и конце : Нет
При вычислениях CRC использовались нулевые сэмплы : Да
Интерфейс : Встроенный Win32-интерфейс для Win NT/2000
Выходной формат : Пользовательский кодировщик
Выбранный битрейт : 896 kBit/s
Качество : Высокий
Добавление ID3-тега : Нет
Утилита сжатия : C:\Program Files\FLAC Frontend\tools\flac.exe
Дополнительные параметры : -V -8 -T "Date=%year%" -T "Genre=%genre%" %source%
TOC извлечённого CD
Трек | Старт | Длительность | Начальный сектор | Конечный сектор
---------------------------------------------------------------------
1 | 0:00.00 | 12:40.02 | 0 | 57001
2 | 12:40.02 | 9:44.60 | 57002 | 100861
3 | 22:24.62 | 4:01.01 | 100862 | 118937
4 | 26:25.63 | 10:20.70 | 118938 | 165507
5 | 36:46.58 | 3:53.26 | 165508 | 183008
6 | 40:40.09 | 11:58.65 | 183009 | 236923
7 | 52:38.74 | 7:32.47 | 236924 | 270870
8 | 60:11.46 | 6:52.06 | 270871 | 301776
Характеристики диапазона извлечения и сообщения об ошибках
Выбранный диапазон
Имя файла D:\EAC\Мои раздачи\Haydn - Complete Music for Solo Keyboard - Brautigam\CD05\Franz Joseph Haydn - Haydn - Complete Music for Solo Keyboard - CD05.wav
Пиковый уровень 99.9 %
Скорость извлечения 4.3 X
Качество диапазона 100.0 %
CRC теста DB8E9B08
CRC копии DB8E9B08
Копирование... OK
Ошибок не произошло
AccurateRip: сводка
Трек 1 : извлечено точно (доверие 10) [76CD97A6] (AR v2)
Трек 2 : извлечено точно (доверие 10) [36E3AC02] (AR v2)
Трек 3 : извлечено точно (доверие 10) [EFE696D3] (AR v2)
Трек 4 : извлечено точно (доверие 10) [54DC9F58] (AR v2)
Трек 5 : извлечено точно (доверие 10) [D5BD65B8] (AR v2)
Трек 6 : извлечено точно (доверие 10) [C6D03815] (AR v2)
Трек 7 : извлечено точно (доверие 10) [CF960B05] (AR v2)
Трек 8 : извлечено точно (доверие 10) [69AB5BAE] (AR v2)
Все треки извлечены точно
Конец отчёта
==== Контрольная сумма отчёта 73284F276BA7D7A2FFA20EDF961E8C47786892D2DD910CECC027448C7A235076 ====

CD6:Треклист:

Sonata No. 34 in D major, Hob. XVI:33
01. I. Allegro
02. II. Adagio
03. III. Tempo di Menuet
Sonata No. 35 in A flat major, Hob. XVI:43
04. I. Moderato
05. II. Menuetto – Trio
06. III. Rondo
Sonata No. 36 in C major, Hob. XVI:21
07. I. Allegro
08. II. Adagio
09. III. Finale. Presto
Sonata No. 37 in E major, Hob. XVI:22
10. I. Allegro moderato
11. II. Andante
12. III. Finale. Tempo di Menuet
Total 70.33

Лог создания рипа:

Exact Audio Copy V1.0 beta 3 from 29. August 2011
Отчёт EAC об извлечении, выполненном 29. апреля 2015, 12:30
Franz Joseph Haydn / Complete Music for Solo Keyboard - CD06
Дисковод: Optiarc DVD RW AD-7260S Adapter: 0 ID: 1
Режим чтения : Достоверность
Использование точного потока : Да
Отключение кэша аудио : Да
Использование указателей C2 : Нет
Коррекция смещения при чтении : 48
Способность читать области Lead-in и Lead-out : Нет
Заполнение пропущенных сэмплов тишиной : Да
Удаление блоков с тишиной в начале и конце : Нет
При вычислениях CRC использовались нулевые сэмплы : Да
Интерфейс : Встроенный Win32-интерфейс для Win NT/2000
Выходной формат : Пользовательский кодировщик
Выбранный битрейт : 896 kBit/s
Качество : Высокий
Добавление ID3-тега : Нет
Утилита сжатия : C:\Program Files\FLAC Frontend\tools\flac.exe
Дополнительные параметры : -V -8 -T "Date=%year%" -T "Genre=%genre%" %source%
TOC извлечённого CD
Трек | Старт | Длительность | Начальный сектор | Конечный сектор
---------------------------------------------------------------------
1 | 0:00.00 | 8:31.00 | 0 | 38324
2 | 8:31.00 | 5:02.25 | 38325 | 60999
3 | 13:33.25 | 4:04.18 | 61000 | 79317
4 | 17:37.43 | 8:53.00 | 79318 | 119292
5 | 26:30.43 | 2:05.50 | 119293 | 128717
6 | 28:36.18 | 4:17.25 | 128718 | 148017
7 | 32:53.43 | 8:21.00 | 148018 | 185592
8 | 41:14.43 | 7:55.00 | 185593 | 221217
9 | 49:09.43 | 2:52.00 | 221218 | 234117
10 | 52:01.43 | 8:14.00 | 234118 | 271167
11 | 60:15.43 | 6:11.00 | 271168 | 298992
12 | 66:26.43 | 4:07.08 | 298993 | 317525
Характеристики диапазона извлечения и сообщения об ошибках
Выбранный диапазон
Имя файла D:\EAC\Мои раздачи\Haydn - Complete Music for Solo Keyboard - Brautigam\CD06\Franz Joseph Haydn - Complete Music for Solo Keyboard - CD06.wav
Пиковый уровень 87.6 %
Скорость извлечения 4.4 X
Качество диапазона 99.9 %
CRC теста 0C3EC450
CRC копии 0C3EC450
Копирование... OK
Ошибок не произошло
AccurateRip: сводка
Трек 1 : извлечено точно (доверие 10) [6DCDEB85] (AR v2)
Трек 2 : извлечено точно (доверие 10) [495737B8] (AR v2)
Трек 3 : извлечено точно (доверие 10) [EEEC5DFC] (AR v2)
Трек 4 : извлечено точно (доверие 10) [F1F5E018] (AR v2)
Трек 5 : извлечено точно (доверие 10) [36E3EB14] (AR v2)
Трек 6 : извлечено точно (доверие 10) [5934300A] (AR v2)
Трек 7 : извлечено точно (доверие 10) [AF4CE7BF] (AR v2)
Трек 8 : извлечено точно (доверие 10) [874B2B3F] (AR v2)
Трек 9 : извлечено точно (доверие 10) [07851787] (AR v2)
Трек 10 : извлечено точно (доверие 10) [FE1653BB] (AR v2)
Трек 11 : извлечено точно (доверие 10) [1D694EA6] (AR v2)
Трек 12 : извлечено точно (доверие 10) [EB582D71] (AR v2)
Все треки извлечены точно
Конец отчёта
==== Контрольная сумма отчёта 3AD57A35421D3C8522B8F30256A865D45425E941E5B9C48AEC28C9C93372929F ====

CD7:Треклист:

Sonata No. 38 in F major, Hob. XVI:23
01. I. [Moderato]
02. II. Adagio
03. III. Finale. Presto
Sonata No. 39 in D major, Hob. XVI:24
04. I. Allegro
05. II. Adagio
06. III. Finale. Presto
Sonata No. 40 in E flat major, Hob. XVI:25
07. I. Moderato
08. II. Tempo di Menuet
Sonata No. 41 in A major, Hob. XVI:26
09. I. Allegro moderato
10. II. Menuet al rovescio – Trio (al rovescio)
11. III. Finale. Presto
Sonata No. 42 in G major, Hob. XVI:27
12. I. Allegro
13. II. Menuet - Trio
14. III. Finale. Presto
Total 66.39

Лог создания рипа:

Exact Audio Copy V1.0 beta 3 from 29. August 2011
Отчёт EAC об извлечении, выполненном 29. апреля 2015, 10:25
Franz Joseph Haydn / Complete Music for Solo Keyboard - CD07
Дисковод: Optiarc DVD RW AD-7260S Adapter: 0 ID: 1
Режим чтения : Достоверность
Использование точного потока : Да
Отключение кэша аудио : Да
Использование указателей C2 : Нет
Коррекция смещения при чтении : 48
Способность читать области Lead-in и Lead-out : Нет
Заполнение пропущенных сэмплов тишиной : Да
Удаление блоков с тишиной в начале и конце : Нет
При вычислениях CRC использовались нулевые сэмплы : Да
Интерфейс : Встроенный Win32-интерфейс для Win NT/2000
Выходной формат : Пользовательский кодировщик
Выбранный битрейт : 896 kBit/s
Качество : Высокий
Добавление ID3-тега : Нет
Утилита сжатия : C:\Program Files\FLAC Frontend\tools\flac.exe
Дополнительные параметры : -V -8 -T "Date=%year%" -T "Genre=%genre%" %source%
TOC извлечённого CD
Трек | Старт | Длительность | Начальный сектор | Конечный сектор
---------------------------------------------------------------------
1 | 0:00.00 | 7:18.62 | 0 | 32911
2 | 7:18.62 | 6:43.00 | 32912 | 63136
3 | 14:01.62 | 3:28.25 | 63137 | 78761
4 | 17:30.12 | 7:15.49 | 78762 | 111435
5 | 24:45.61 | 3:34.30 | 111436 | 127515
6 | 28:20.16 | 2:23.20 | 127516 | 138260
7 | 30:43.36 | 8:53.50 | 138261 | 178285
8 | 39:37.11 | 2:23.13 | 178286 | 189023
9 | 42:00.24 | 8:39.47 | 189024 | 227995
10 | 50:39.71 | 2:22.50 | 227996 | 238695
11 | 53:02.46 | 0:55.61 | 238696 | 242881
12 | 53:58.32 | 5:02.60 | 242882 | 265591
13 | 59:01.17 | 4:21.10 | 265592 | 285176
14 | 63:22.27 | 3:16.69 | 285177 | 299945
Характеристики диапазона извлечения и сообщения об ошибках
Выбранный диапазон
Имя файла D:\EAC\Мои раздачи\Haydn - Complete Music for Solo Keyboard - Brautigam\CD07\Franz Joseph Haydn - Complete Music for Solo Keyboard - CD07.wav
Пиковый уровень 94.3 %
Скорость извлечения 4.2 X
Качество диапазона 99.9 %
CRC теста E121AF2D
CRC копии E121AF2D
Копирование... OK
Ошибок не произошло
AccurateRip: сводка
Трек 1 : извлечено точно (доверие 10) [525AD22D] (AR v2)
Трек 2 : извлечено точно (доверие 10) [9A9EC9AB] (AR v2)
Трек 3 : извлечено точно (доверие 10) [6F9F258E] (AR v2)
Трек 4 : извлечено точно (доверие 10) [438DEDAC] (AR v2)
Трек 5 : извлечено точно (доверие 10) [29AE2E9A] (AR v2)
Трек 6 : извлечено точно (доверие 10) [94580690] (AR v2)
Трек 7 : извлечено точно (доверие 10) [31D9BD64] (AR v2)
Трек 8 : извлечено точно (доверие 10) [B6EE70C1] (AR v2)
Трек 9 : извлечено точно (доверие 10) [3C38FEDB] (AR v2)
Трек 10 : извлечено точно (доверие 10) [EAC2484C] (AR v2)
Трек 11 : извлечено точно (доверие 10) [01D22708] (AR v2)
Трек 12 : извлечено точно (доверие 10) [48E42365] (AR v2)
Трек 13 : извлечено точно (доверие 10) [0D8828AA] (AR v2)
Трек 14 : извлечено точно (доверие 10) [214E44A4] (AR v2)
Все треки извлечены точно
Конец отчёта
==== Контрольная сумма отчёта 9BF30F7BD1F113E745CCD84B05ADE70EB7ADAE731DC58EE194F37F3A3EA4D1FB ====

CD8:Треклист:

Sonata No. 43 in E flat major, Hob. XVI:28
01. I. Allegro moderato
02. II. Menuet - Trio
03. III. Finale. Presto
Sonata No. 44 in F major, Hob. XVI:29
04. I. Moderato
05. II. Adagio
06. III. Tempo di Menuet
Sonata No. 45 in A major, Hob. XVI:30
07. I. Allegro – II. Adagio
08. III. Tempo di Menuet
Sonata No. 46 in E major, Hob. XVI:31
09. I. Moderato
10. II. Allegretto
11. III. Finale. Presto
Sonata No. 47 in B minor, Hob. XVI:32
12. I. Allegro moderato
13. II. Menuet. Tempo di Menuet
14. III. Finale. Presto
Total 74.00

Лог создания рипа:

Exact Audio Copy V1.0 beta 3 from 29. August 2011
Отчёт EAC об извлечении, выполненном 29. апреля 2015, 9:29
Franz Joseph Haydn / Complete Music for Solo Keyboard - CD08
Дисковод: Optiarc DVD RW AD-7260S Adapter: 0 ID: 1
Режим чтения : Достоверность
Использование точного потока : Да
Отключение кэша аудио : Да
Использование указателей C2 : Нет
Коррекция смещения при чтении : 48
Способность читать области Lead-in и Lead-out : Нет
Заполнение пропущенных сэмплов тишиной : Да
Удаление блоков с тишиной в начале и конце : Нет
При вычислениях CRC использовались нулевые сэмплы : Да
Интерфейс : Встроенный Win32-интерфейс для Win NT/2000
Выходной формат : Пользовательский кодировщик
Выбранный битрейт : 896 kBit/s
Качество : Высокий
Добавление ID3-тега : Нет
Утилита сжатия : C:\Program Files\FLAC Frontend\tools\flac.exe
Дополнительные параметры : -V -8 -T "Date=%year%" -T "Genre=%genre%" %source%
TOC извлечённого CD
Трек | Старт | Длительность | Начальный сектор | Конечный сектор
---------------------------------------------------------------------
1 | 0:00.00 | 9:07.54 | 0 | 41078
2 | 9:07.54 | 3:18.40 | 41079 | 55968
3 | 12:26.19 | 3:16.52 | 55969 | 70720
4 | 15:42.71 | 8:23.43 | 70721 | 108488
5 | 24:06.39 | 5:12.50 | 108489 | 131938
6 | 29:19.14 | 4:26.40 | 131939 | 151928
7 | 33:45.54 | 6:20.39 | 151929 | 180467
8 | 40:06.18 | 6:22.12 | 180468 | 209129
9 | 46:28.30 | 7:16.12 | 209130 | 241841
10 | 53:44.42 | 2:42.60 | 241842 | 254051
11 | 56:27.27 | 2:06.21 | 254052 | 263522
12 | 58:33.48 | 7:33.66 | 263523 | 297563
13 | 66:07.39 | 3:13.66 | 297564 | 312104
14 | 69:21.30 | 4:39.13 | 312105 | 333042
Характеристики диапазона извлечения и сообщения об ошибках
Выбранный диапазон
Имя файла D:\EAC\Мои раздачи\Haydn - Complete Music for Solo Keyboard - Brautigam\CD08\Franz Joseph Haydn - Complete Music for Solo Keyboard - CD08.wav
Пиковый уровень 100.0 %
Скорость извлечения 4.5 X
Качество диапазона 100.0 %
CRC теста 8F753886
CRC копии 8F753886
Копирование... OK
Ошибок не произошло
AccurateRip: сводка
Трек 1 отсутствует в базе данных
Трек 2 отсутствует в базе данных
Трек 3 отсутствует в базе данных
Трек 4 отсутствует в базе данных
Трек 5 отсутствует в базе данных
Трек 6 отсутствует в базе данных
Трек 7 отсутствует в базе данных
Трек 8 отсутствует в базе данных
Трек 9 отсутствует в базе данных
Трек 10 отсутствует в базе данных
Трек 11 отсутствует в базе данных
Трек 12 отсутствует в базе данных
Трек 13 отсутствует в базе данных
Трек 14 отсутствует в базе данных
Ни одного трека нет в базе AccurateRip
Конец отчёта
==== Контрольная сумма отчёта 2D65D5454D4D8C96675351ACADC73A6A5BA51845AC22989FF5E33C35F82D70AB ====

CD9:Треклист:

Sonata No. 48 in C major, Hob. XVI:35
01. I. Allegro con brio
02. II. Adagio
03. III. Finale. Allegro
Sonata No. 49 in C sharp minor, Hob. XVI:36
04. I. Moderato
05. II. Scherzando. Allegro con brio
06. III. Menuet. Moderato
Sonata No. 50 in D major, Hob. XVI:37
07. I. Allegro con brio
08. II. Largo e sostenuto
09. III. Finale. Presto ma non troppo
Sonata No. 51 in E flat major, Hob. XVI:38
10. I. Allegro moderato
11. II. Adagio
12. III. Finale. Allegro
Sonata No. 52 in G major, Hob. XVI:39
13. I. Allegro con brio
14. II. Adagio
15. III. Prestissimo
Total 75.14

Лог создания рипа:

Exact Audio Copy V1.0 beta 3 from 29. August 2011
Отчёт EAC об извлечении, выполненном 28. апреля 2015, 22:02
Franz Joseph Haydn / Complete Music for Solo Keyboard - CD09
Дисковод: Optiarc DVD RW AD-7260S Adapter: 0 ID: 1
Режим чтения : Достоверность
Использование точного потока : Да
Отключение кэша аудио : Да
Использование указателей C2 : Нет
Коррекция смещения при чтении : 48
Способность читать области Lead-in и Lead-out : Нет
Заполнение пропущенных сэмплов тишиной : Да
Удаление блоков с тишиной в начале и конце : Нет
При вычислениях CRC использовались нулевые сэмплы : Да
Интерфейс : Встроенный Win32-интерфейс для Win NT/2000
Выходной формат : Пользовательский кодировщик
Выбранный битрейт : 896 kBit/s
Качество : Высокий
Добавление ID3-тега : Нет
Утилита сжатия : C:\Program Files\FLAC Frontend\tools\flac.exe
Дополнительные параметры : -V -8 -T "Date=%year%" -T "Genre=%genre%" %source%
TOC извлечённого CD
Трек | Старт | Длительность | Начальный сектор | Конечный сектор
---------------------------------------------------------------------
1 | 0:00.00 | 7:32.17 | 0 | 33916
2 | 7:32.17 | 6:25.38 | 33917 | 62829
3 | 13:57.55 | 2:54.20 | 62830 | 75899
4 | 16:52.00 | 10:19.25 | 75900 | 122349
5 | 27:11.25 | 2:48.62 | 122350 | 135011
6 | 30:00.12 | 3:37.05 | 135012 | 151291
7 | 33:37.17 | 5:53.30 | 151292 | 177796
8 | 39:30.47 | 2:33.08 | 177797 | 189279
9 | 42:03.55 | 2:52.00 | 189280 | 202179
10 | 44:55.55 | 8:56.12 | 202180 | 242391
11 | 53:51.67 | 3:55.50 | 242392 | 260066
12 | 57:47.42 | 2:55.23 | 260067 | 273214
13 | 60:42.65 | 3:52.55 | 273215 | 290669
14 | 64:35.45 | 6:20.02 | 290670 | 319171
15 | 70:55.47 | 4:16.13 | 319172 | 338384
Характеристики диапазона извлечения и сообщения об ошибках
Выбранный диапазон
Имя файла D:\EAC\Мои раздачи\Haydn - Complete Music for Solo Keyboard - Brautigam\CD09\Franz Joseph Haydn - Complete Music for Solo Keyboard - CD09.wav
Пиковый уровень 92.9 %
Скорость извлечения 4.5 X
Качество диапазона 100.0 %
CRC теста 36EDDA3A
CRC копии 36EDDA3A
Копирование... OK
Ошибок не произошло
AccurateRip: сводка
Трек 1 : извлечено точно (доверие 11) [F0F048E7] (AR v2)
Трек 2 : извлечено точно (доверие 11) [0B3719FA] (AR v2)
Трек 3 : извлечено точно (доверие 11) [5A99FEFA] (AR v2)
Трек 4 : извлечено точно (доверие 11) [425A1D7F] (AR v2)
Трек 5 : извлечено точно (доверие 11) [58C396F2] (AR v2)
Трек 6 : извлечено точно (доверие 11) [B0213C19] (AR v2)
Трек 7 : извлечено точно (доверие 11) [7D55CB2A] (AR v2)
Трек 8 : извлечено точно (доверие 11) [49A54DEF] (AR v2)
Трек 9 : извлечено точно (доверие 11) [63847FDB] (AR v2)
Трек 10 : извлечено точно (доверие 11) [9C7B4C94] (AR v2)
Трек 11 : извлечено точно (доверие 11) [830CF8C5] (AR v2)
Трек 12 : извлечено точно (доверие 11) [5537AF85] (AR v2)
Трек 13 : извлечено точно (доверие 11) [8EBF51B1] (AR v2)
Трек 14 : извлечено точно (доверие 11) [003980BF] (AR v2)
Трек 15 : извлечено точно (доверие 11) [D46C9AA0] (AR v2)
Все треки извлечены точно
Конец отчёта
==== Контрольная сумма отчёта CB31A0A2D33159AF2539ED59D559148D030298AC2788AD73F4263FE831B853C1 ====

CD10:Треклист:

Sonata No. 53 in E minor, Hob. XVI:34
01. I. Presto
02. II. Adagio
03. III. Vivace molto
Sonata No. 54 in G major, Hob. XVI:40
04. I. Allegretto innocente
05. II. Presto
Sonata No. 55 in B flat major, Hob. XVI:41
06. I. Allegro
07. II. Allegro di molto
Sonata No. 56 in D major, Hob. XVI:42
08. I. Andante con espressione
09. II. Vivace assai
Sonata No. 57 in F major, Hob. XVI:47
10. I. Moderato
11. II. Larghetto
12. III. Allegro
Sonata No. 58 in C major, Hob. XVI:48
13. I. Andante con espressione
14. II. Rondo. Presto
Total 74.23

Лог создания рипа:

Exact Audio Copy V1.0 beta 3 from 29. August 2011
Отчёт EAC об извлечении, выполненном 28. апреля 2015, 21:23
Franz Joseph Haydn / Complete Music for Solo Keyboard - CD10
Дисковод: Optiarc DVD RW AD-7260S Adapter: 0 ID: 1
Режим чтения : Достоверность
Использование точного потока : Да
Отключение кэша аудио : Да
Использование указателей C2 : Нет
Коррекция смещения при чтении : 48
Способность читать области Lead-in и Lead-out : Нет
Заполнение пропущенных сэмплов тишиной : Да
Удаление блоков с тишиной в начале и конце : Нет
При вычислениях CRC использовались нулевые сэмплы : Да
Интерфейс : Встроенный Win32-интерфейс для Win NT/2000
Выходной формат : Пользовательский кодировщик
Выбранный битрейт : 896 kBit/s
Качество : Высокий
Добавление ID3-тега : Нет
Утилита сжатия : C:\Program Files\FLAC Frontend\tools\flac.exe
Дополнительные параметры : -V -8 -T "Date=%year%" -T "Genre=%genre%" %source%
TOC извлечённого CD
Трек | Старт | Длительность | Начальный сектор | Конечный сектор
---------------------------------------------------------------------
1 | 0:00.00 | 4:55.15 | 0 | 22139
2 | 4:55.15 | 4:50.72 | 22140 | 43961
3 | 9:46.12 | 3:22.00 | 43962 | 59111
4 | 13:08.12 | 7:26.68 | 59112 | 92629
5 | 20:35.05 | 2:55.30 | 92630 | 105784
6 | 23:30.35 | 8:34.52 | 105785 | 144386
7 | 32:05.12 | 2:19.30 | 144387 | 154841
8 | 34:24.42 | 8:52.30 | 154842 | 194771
9 | 43:16.72 | 2:54.50 | 194772 | 207871
10 | 46:11.47 | 7:03.20 | 207872 | 239616
11 | 53:14.67 | 4:31.70 | 239617 | 260011
12 | 57:46.62 | 5:10.18 | 260012 | 283279
13 | 62:57.05 | 7:25.10 | 283280 | 316664
14 | 70:22.15 | 4:03.20 | 316665 | 334909
Характеристики диапазона извлечения и сообщения об ошибках
Выбранный диапазон
Имя файла D:\EAC\Мои раздачи\Haydn - Complete Music for Solo Keyboard - Brautigam\CD10\Franz Joseph Haydn - Complete Music for Solo Keyboard - CD10.wav
Пиковый уровень 85.4 %
Скорость извлечения 4.6 X
Качество диапазона 100.0 %
CRC теста 360E2B28
CRC копии 360E2B28
Копирование... OK
Ошибок не произошло
AccurateRip: сводка
Трек 1 : извлечено точно (доверие 9) [5B4735E8] (AR v2)
Трек 2 : извлечено точно (доверие 9) [9DA1C0E0] (AR v2)
Трек 3 : извлечено точно (доверие 9) [802CF98C] (AR v2)
Трек 4 : извлечено точно (доверие 9) [19651D22] (AR v2)
Трек 5 : извлечено точно (доверие 9) [9B75598C] (AR v2)
Трек 6 : извлечено точно (доверие 9) [39EB8890] (AR v2)
Трек 7 : извлечено точно (доверие 9) [4100A19D] (AR v2)
Трек 8 : извлечено точно (доверие 9) [122AD247] (AR v2)
Трек 9 : извлечено точно (доверие 9) [D776503B] (AR v2)
Трек 10 : извлечено точно (доверие 9) [727BA3B7] (AR v2)
Трек 11 : извлечено точно (доверие 9) [E05F3BB7] (AR v2)
Трек 12 : извлечено точно (доверие 9) [E0261DDD] (AR v2)
Трек 13 : извлечено точно (доверие 9) [39F23FEC] (AR v2)
Трек 14 : извлечено точно (доверие 9) [4AEF4B98] (AR v2)
Все треки извлечены точно
Конец отчёта
==== Контрольная сумма отчёта D36EF3493C49E5DADA8895344EF8C081F4E19F7D506670F42F3669AF66AB0894 ====

CD11:Треклист:

Sonata No. 59 in E flat major, Hob. XVI:49 "Genzinger Sonata"
01. I. Allegro
02. II. Adagio e cantabile
03. III. Finale. Tempo di Minuet
Sonata No. 60 in C major, Hob. XVI:50
04. I. Allegro
05. II. Adagio
06. III. Allegro molto
Sonata No. 61 in D major, Hob. XVI:51
07. I. Andante
08. II. Finale. Presto
Sonata No. 62 in E flat major, Hob. XVI:52
09. I. Allegro
10. II. Adagio
11. III. Finale. Presto
Total 67.17

Лог создания рипа:

Exact Audio Copy V1.0 beta 3 from 29. August 2011
Отчёт EAC об извлечении, выполненном 28. апреля 2015, 20:44
Franz Joseph Haydn / Complete Music for Solo Keyboard - CD11
Дисковод: Optiarc DVD RW AD-7260S Adapter: 0 ID: 1
Режим чтения : Достоверность
Использование точного потока : Да
Отключение кэша аудио : Да
Использование указателей C2 : Нет
Коррекция смещения при чтении : 48
Способность читать области Lead-in и Lead-out : Нет
Заполнение пропущенных сэмплов тишиной : Да
Удаление блоков с тишиной в начале и конце : Нет
При вычислениях CRC использовались нулевые сэмплы : Да
Интерфейс : Встроенный Win32-интерфейс для Win NT/2000
Выходной формат : Пользовательский кодировщик
Выбранный битрейт : 896 kBit/s
Качество : Высокий
Добавление ID3-тега : Нет
Утилита сжатия : C:\Program Files\FLAC Frontend\tools\flac.exe
Дополнительные параметры : -V -8 -T "Date=%year%" -T "Genre=%genre%" %source%
TOC извлечённого CD
Трек | Старт | Длительность | Начальный сектор | Конечный сектор
---------------------------------------------------------------------
1 | 0:00.00 | 10:43.22 | 0 | 48246
2 | 10:43.22 | 8:07.65 | 48247 | 84836
3 | 18:51.12 | 4:11.08 | 84837 | 103669
4 | 23:02.20 | 11:47.50 | 103670 | 156744
5 | 34:49.70 | 5:22.05 | 156745 | 180899
6 | 40:12.00 | 2:14.52 | 180900 | 191001
7 | 42:26.52 | 3:55.18 | 191002 | 208644
8 | 46:21.70 | 1:45.62 | 208645 | 216581
9 | 48:07.57 | 8:08.45 | 216582 | 253226
10 | 56:16.27 | 6:03.40 | 253227 | 280491
11 | 62:19.67 | 4:57.33 | 280492 | 302799
Характеристики диапазона извлечения и сообщения об ошибках
Выбранный диапазон
Имя файла D:\EAC\Мои раздачи\Haydn - Complete Music for Solo Keyboard - Brautigam\CD11\Franz Joseph Haydn - Complete Music for Solo Keyboard - CD11.wav
Пиковый уровень 99.9 %
Скорость извлечения 4.4 X
Качество диапазона 100.0 %
CRC теста F1E948A1
CRC копии F1E948A1
Копирование... OK
Ошибок не произошло
AccurateRip: сводка
Трек 1 : извлечено точно (доверие 10) [C263372D] (AR v2)
Трек 2 : извлечено точно (доверие 10) [82E39849] (AR v2)
Трек 3 : извлечено точно (доверие 10) [57661D7C] (AR v2)
Трек 4 : извлечено точно (доверие 10) [83D6A2D6] (AR v2)
Трек 5 : извлечено точно (доверие 10) [6EFBF003] (AR v2)
Трек 6 : извлечено точно (доверие 10) [0EED9687] (AR v2)
Трек 7 : извлечено точно (доверие 10) [C95FD3CE] (AR v2)
Трек 8 : извлечено точно (доверие 10) [E75E7610] (AR v2)
Трек 9 : извлечено точно (доверие 10) [5CEBEA67] (AR v2)
Трек 10 : извлечено точно (доверие 10) [63791516] (AR v2)
Трек 11 : извлечено точно (доверие 10) [8EC7E78B] (AR v2)
Все треки извлечены точно
Конец отчёта
==== Контрольная сумма отчёта 203C4CA51A5BA6D2CF7C9247E02BBEF26F1B2AAF5A80F681330FCD0F4EEF275F ====

CD12:Треклист:

01. Capriccio "Acht Sauschneider mussen seyn" in G major, Hob. XVII:1
02. Arietta con 12 variazioni in E flat major, Hob. XVII:3
03. Arietta con 12 variazioni in A major, Hob. XVII:2
04. Fantasia in C major, Hob. XVII:4
05. 6 Leichte Variationen in C major, Hob. XVII:5
06. Andante con variazioni in F minor, Hob. XVII:6
07. Adagio in F major, Hob. XVII:9
Total 64.09

Лог создания рипа:

Exact Audio Copy V1.0 beta 3 from 29. August 2011
Отчёт EAC об извлечении, выполненном 28. апреля 2015, 19:02
Franz Joseph Haydn / Complete Music for Solo Keyboard - CD12
Дисковод: Optiarc DVD RW AD-7260S Adapter: 0 ID: 1
Режим чтения : Достоверность
Использование точного потока : Да
Отключение кэша аудио : Да
Использование указателей C2 : Нет
Коррекция смещения при чтении : 48
Способность читать области Lead-in и Lead-out : Нет
Заполнение пропущенных сэмплов тишиной : Да
Удаление блоков с тишиной в начале и конце : Нет
При вычислениях CRC использовались нулевые сэмплы : Да
Интерфейс : Встроенный Win32-интерфейс для Win NT/2000
Выходной формат : Пользовательский кодировщик
Выбранный битрейт : 896 kBit/s
Качество : Высокий
Добавление ID3-тега : Нет
Утилита сжатия : C:\Program Files\FLAC Frontend\tools\flac.exe
Дополнительные параметры : -V -8 -T "Date=%year%" -T "Genre=%genre%" %source%
TOC извлечённого CD
Трек | Старт | Длительность | Начальный сектор | Конечный сектор
---------------------------------------------------------------------
1 | 0:00.00 | 7:22.55 | 0 | 33204
2 | 7:22.55 | 14:06.25 | 33205 | 96679
3 | 21:29.05 | 9:29.65 | 96680 | 139419
4 | 30:58.70 | 5:40.17 | 139420 | 164936
5 | 36:39.12 | 7:44.45 | 164937 | 199781
6 | 44:23.57 | 15:09.00 | 199782 | 267956
7 | 59:32.57 | 4:39.18 | 267957 | 288899
Характеристики диапазона извлечения и сообщения об ошибках
Выбранный диапазон
Имя файла D:\EAC\Мои раздачи\Haydn - Complete Music for Solo Keyboard - Brautigam\CD12\Franz Joseph Haydn - Complete Music for Solo Keyboard - CD12.wav
Пиковый уровень 89.3 %
Скорость извлечения 4.2 X
Качество диапазона 100.0 %
CRC теста 1650F649
CRC копии 1650F649
Копирование... OK
Ошибок не произошло
AccurateRip: сводка
Трек 1 : извлечено точно (доверие 14) [53A4D508] (AR v2)
Трек 2 : извлечено точно (доверие 14) [238B0C63] (AR v2)
Трек 3 : извлечено точно (доверие 14) [19E5F3DD] (AR v2)
Трек 4 : извлечено точно (доверие 14) [02DDEF9C] (AR v2)
Трек 5 : извлечено точно (доверие 14) [A9E1B0DE] (AR v2)
Трек 6 : извлечено точно (доверие 14) [BD2CFBCA] (AR v2)
Трек 7 : извлечено точно (доверие 14) [FED46A35] (AR v2)
Все треки извлечены точно
Конец отчёта
==== Контрольная сумма отчёта 36DBB83AFD3BA8B3BBA0200CB0039A57898BFB3551551146989367125025B6C1 ====

CD13:Треклист:

01. 20 Variationen in G major, Hob. XVII:2
02. Andante con variazioni in D major, Hob. XVII:7
03. Andantino (Allegretto) con variazioni in A major Hob. XVII:8
04. Allegretto in G major, Hob. XVII:10
05. Andante con variazioni in B flat major, Hob. XVII:12
06. Aria con variazioni in C major, Hob. XVII:15
07. Adagio in G major, Hob. XV/22II
08. Allegretto con variazioni in A major, Hob. XVII?A3
09. Allegretto in G major, Hob. III:41IV
10. Variationen uber die Hymne "Gott erhalte Franz, den Kaiser" in G major
11. Il Maestro e lo Scolare in F major, Hob. XVIIa/1
Total 64.21

Лог создания рипа:

Exact Audio Copy V1.0 beta 3 from 29. August 2011
Отчёт EAC об извлечении, выполненном 28. апреля 2015, 17:29
Franz Joseph Haydn / Complete Music for Solo Keyboard - CD13
Дисковод: Optiarc DVD RW AD-7260S Adapter: 0 ID: 1
Режим чтения : Достоверность
Использование точного потока : Да
Отключение кэша аудио : Да
Использование указателей C2 : Нет
Коррекция смещения при чтении : 48
Способность читать области Lead-in и Lead-out : Нет
Заполнение пропущенных сэмплов тишиной : Да
Удаление блоков с тишиной в начале и конце : Нет
При вычислениях CRC использовались нулевые сэмплы : Да
Интерфейс : Встроенный Win32-интерфейс для Win NT/2000
Выходной формат : Пользовательский кодировщик
Выбранный битрейт : 896 kBit/s
Качество : Высокий
Добавление ID3-тега : Нет
Утилита сжатия : C:\Program Files\FLAC Frontend\tools\flac.exe
Дополнительные параметры : -V -8 -T "Date=%year%" -T "Genre=%genre%" %source%
TOC извлечённого CD
Трек | Старт | Длительность | Начальный сектор | Конечный сектор
---------------------------------------------------------------------
1 | 0:00.00 | 15:01.45 | 0 | 67619
2 | 15:01.45 | 4:18.25 | 67620 | 86994
3 | 19:19.70 | 4:54.70 | 86995 | 109114
4 | 24:14.65 | 1:49.22 | 109115 | 117311
5 | 26:04.12 | 5:37.73 | 117312 | 142659
6 | 31:42.10 | 5:09.57 | 142660 | 165891
7 | 36:51.67 | 4:43.45 | 165892 | 187161
8 | 41:35.37 | 6:19.25 | 187162 | 215611
9 | 47:54.62 | 2:19.50 | 215612 | 226086
10 | 50:14.37 | 5:13.65 | 226087 | 249626
11 | 55:28.27 | 8:53.60 | 249627 | 289661
Характеристики диапазона извлечения и сообщения об ошибках
Выбранный диапазон
Имя файла D:\EAC\Мои раздачи\Haydn - Complete Music for Solo Keyboard - Brautigam\CD13\Franz Joseph Haydn - Complete Music for Solo Keyboard - CD13.wav
Пиковый уровень 74.4 %
Скорость извлечения 4.2 X
Качество диапазона 99.9 %
CRC теста 37BA6489
CRC копии 37BA6489
Копирование... OK
Ошибок не произошло
AccurateRip: сводка
Трек 1 : извлечено точно (доверие 14) [09155068] (AR v2)
Трек 2 : извлечено точно (доверие 14) [2E4EAB20] (AR v2)
Трек 3 : извлечено точно (доверие 14) [EEC3EFA9] (AR v2)
Трек 4 : извлечено точно (доверие 14) [D4D6E3A2] (AR v2)
Трек 5 : извлечено точно (доверие 14) [F1A19FF6] (AR v2)
Трек 6 : извлечено точно (доверие 14) [BF4B6547] (AR v2)
Трек 7 : извлечено точно (доверие 14) [D53B38B9] (AR v2)
Трек 8 : извлечено точно (доверие 14) [E11CB3C3] (AR v2)
Трек 9 : извлечено точно (доверие 14) [6EF8D380] (AR v2)
Трек 10 : извлечено точно (доверие 14) [1CB98448] (AR v2)
Трек 11 : извлечено точно (доверие 14) [63A84357] (AR v2)
Все треки извлечены точно
Конец отчёта
==== Контрольная сумма отчёта 6549E144371BB08FCC2E38849B8446419138B2E5F5C8190D0FDC00577D23ED0D ====

CD14:Треклист:

01-12. 12 Menuette, Hob. IX:11
13-24. 12 Deutsche Tanze, Hob. IX:12
25-36. 12 Menuette, Hob. IX:3
37-48. 12 Menuette, Hob. IX:8
49-50. 2 Marsche (for Sir Henry Harpur), Hob. VIII:1
51. Marsch, Hob. VIII:3/3bis
52. Kontretanz, Hob. XXXI:c:17b
Total 68.05

Лог создания рипа:

Exact Audio Copy V1.0 beta 3 from 29. August 2011
Отчёт EAC об извлечении, выполненном 28. апреля 2015, 14:16
Franz Joseph Haydn / Complete Music for Solo Keyboard - CD14
Дисковод: Optiarc DVD RW AD-7260S Adapter: 0 ID: 1
Режим чтения : Достоверность
Использование точного потока : Да
Отключение кэша аудио : Да
Использование указателей C2 : Нет
Коррекция смещения при чтении : 48
Способность читать области Lead-in и Lead-out : Нет
Заполнение пропущенных сэмплов тишиной : Да
Удаление блоков с тишиной в начале и конце : Нет
При вычислениях CRC использовались нулевые сэмплы : Да
Интерфейс : Встроенный Win32-интерфейс для Win NT/2000
Выходной формат : Пользовательский кодировщик
Выбранный битрейт : 896 kBit/s
Качество : Высокий
Добавление ID3-тега : Нет
Утилита сжатия : C:\Program Files\FLAC Frontend\tools\flac.exe
Дополнительные параметры : -V -8 -T "Date=%year%" -T "Genre=%genre%" %source%
TOC извлечённого CD
Трек | Старт | Длительность | Начальный сектор | Конечный сектор
---------------------------------------------------------------------
1 | 0:00.00 | 2:45.40 | 0 | 12414
2 | 2:45.40 | 1:42.17 | 12415 | 20081
3 | 4:27.57 | 2:09.05 | 20082 | 29761
4 | 6:36.62 | 1:44.45 | 29762 | 37606
5 | 8:21.32 | 1:44.13 | 37607 | 45419
6 | 10:05.45 | 2:12.70 | 45420 | 55389
7 | 12:18.40 | 2:12.57 | 55390 | 65346
8 | 14:31.22 | 1:37.43 | 65347 | 72664
9 | 16:08.65 | 1:55.65 | 72665 | 81354
10 | 18:04.55 | 0:41.17 | 81355 | 84446
11 | 18:45.72 | 1:56.28 | 84447 | 93174
12 | 20:42.25 | 2:34.35 | 93175 | 104759
13 | 23:16.60 | 0:34.45 | 104760 | 107354
14 | 23:51.30 | 0:31.37 | 107355 | 109716
15 | 24:22.67 | 0:33.48 | 109717 | 112239
16 | 24:56.40 | 1:25.40 | 112240 | 118654
17 | 26:22.05 | 0:28.20 | 118655 | 120774
18 | 26:50.25 | 0:30.27 | 120775 | 123051
19 | 27:20.52 | 0:32.23 | 123052 | 125474
20 | 27:53.00 | 0:37.20 | 125475 | 128269
21 | 28:30.20 | 0:32.20 | 128270 | 130689
22 | 29:02.40 | 0:32.10 | 130690 | 133099
23 | 29:34.50 | 0:29.40 | 133100 | 135314
24 | 30:04.15 | 1:03.17 | 135315 | 140056
25 | 31:07.32 | 2:35.18 | 140057 | 151699
26 | 33:42.50 | 0:39.17 | 151700 | 154641
27 | 34:21.67 | 0:42.03 | 154642 | 157794
28 | 35:03.70 | 1:36.35 | 157795 | 165029
29 | 36:40.30 | 1:53.65 | 165030 | 173569
30 | 38:34.20 | 0:41.22 | 173570 | 176666
31 | 39:15.42 | 1:30.65 | 176667 | 183481
32 | 40:46.32 | 0:40.30 | 183482 | 186511
33 | 41:26.62 | 0:48.53 | 186512 | 190164
34 | 42:15.40 | 1:01.30 | 190165 | 194769
35 | 43:16.70 | 0:41.07 | 194770 | 197851
36 | 43:58.02 | 1:03.50 | 197852 | 202626
37 | 45:01.52 | 2:18.05 | 202627 | 212981
38 | 47:19.57 | 0:49.20 | 212982 | 216676
39 | 48:09.02 | 0:40.15 | 216677 | 219691
40 | 48:49.17 | 1:36.73 | 219692 | 226964
41 | 50:26.15 | 1:42.12 | 226965 | 234626
42 | 52:08.27 | 0:40.10 | 234627 | 237636
43 | 52:48.37 | 2:12.70 | 237637 | 247606
44 | 55:01.32 | 0:43.03 | 247607 | 250834
45 | 55:44.35 | 0:44.70 | 250835 | 254204
46 | 56:29.30 | 1:51.72 | 254205 | 262601
47 | 58:21.27 | 0:39.28 | 262602 | 265554
48 | 59:00.55 | 1:03.25 | 265555 | 270304
49 | 60:04.05 | 1:28.45 | 270305 | 276949
50 | 61:32.50 | 1:38.67 | 276950 | 284366
51 | 63:11.42 | 3:52.10 | 284367 | 301776
52 | 67:03.52 | 1:03.00 | 301777 | 306501
Характеристики диапазона извлечения и сообщения об ошибках
Выбранный диапазон
Имя файла D:\EAC\Мои раздачи\Haydn - Complete Music for Solo Keyboard - Brautigam\CD14\Franz Joseph Haydn - Complete Music for Solo Keyboard - CD14.wav
Пиковый уровень 78.6 %
Скорость извлечения 4.4 X
Качество диапазона 100.0 %
CRC теста 6A97454C
CRC копии 6A97454C
Копирование... OK
Ошибок не произошло
AccurateRip: сводка
Трек 1 : извлечено точно (доверие 10) [C6E7CE24] (AR v2)
Трек 2 : извлечено точно (доверие 10) [AE2B9A19] (AR v2)
Трек 3 : извлечено точно (доверие 10) [82FB682D] (AR v2)



Показать сообщения:    

Текущее время: 08-Дек 10:57

Часовой пояс: UTC + 3


Вы не можете начинать темы
Вы не можете отвечать на сообщения
Вы не можете редактировать свои сообщения
Вы не можете удалять свои сообщения
Вы не можете голосовать в опросах
Вы не можете прикреплять файлы к сообщениям
Вы не можете скачивать файлы