(Classical) Jacobean Lute Music: Dowland, Robinson, Johnson, Bacheler, Hely, Gaultier - Jakob Lindberg (Якоб Линдберг) - 2013, FLAC (image+.cue) lossless


 

[Цитировать]

Jacobean Lute Music: Dowland, Robinson, Johnson, Bacheler, Hely, Gaultier - Jakob Lindberg
Жанр: Classical
Страна-производитель диска: Sweden
Год издания диска: 2013
Издатель (лейбл): BIS
Номер по каталогу: BIS-SACD-2055
Дата записи: 2012
Аудиокодек: FLAC
Тип рипа: image+.cue
Битрейт аудио: lossless
Продолжительность: 81:12
Источник: собственный рип
Наличие сканов в содержимом раздачи: да
Треклист:
John Dowland (1563–1626)
[1] A Fancy
Thomas Robinson (c. 1560–1610)
[2] Merry Melancholy
[3] A Galliard
[4] Walking in a Country Town
[5] A Gigue
Robert Johnson (c. 1583–1633)
[6] Pavan
Anonymous
[7] A Scottish Dance
[8] Draw Near to Me and Love Me
[9] Hence to me Molly Gray
[10] A Scottish Tune
[11] Scottish Hunts Up
Daniel Bacheler (1572–after 1610)
[12] Mounsiers Almain
Cuthbert Hely (fl. 1620–48)
[13] Fantasia
[14] Saraband
John Dowland
[15] Battle Galliard
Daniel Bacheler
[16] Prelude
[17] La Jeune Fillette
[18] Courante
[?] Jacques Gaultier (fl. 1617–1652)
[19] Courante
[20] Cloches
[21] Courante
Daniel Bacheler
[22] Pavan
Anonymous
[23] Prelude
[24] John Come Kiss Me Now
Robert Johnson
[25] Fantasia
Thomas Robinson
[26] The Spanish Pavan
[27] A Gigue
[28] A Toy
[29] Row Well, you Mariners
John Dowland
[30] Sir John Langton’s Pavan
Исполнители:
Jakob Lindberg lute

Лог создания рипа

Exact Audio Copy V1.0 beta 3 from 29. August 2011
EAC extraction logfile from 4. March 2015, 22:42
Jakob Lindberg / Jacobean Lute Music
Used drive : HL-DT-STDVDRAM GU70N Adapter: 0 ID: 0
Read mode : SecureUtilize accurate stream : YesDefeat audio cache : YesMake use of C2 pointers : No
Read offset correction : 48Overread into Lead-In and Lead-Out : NoFill up missing offset samples with silence : YesDelete leading and trailing silent blocks : NoNull samples used in CRC calculations : YesUsed interface : Native Win32 interface for Win NT & 2000
Used output format : User Defined EncoderSelected bitrate : 128 kBit/sQuality : HighAdd ID3 tag : NoCommand line compressor : C:\Program Files (x86)\Exact Audio Copy\Flac\flac.exeAdditional command line options : -V -8 -T "Date=%year%" -T "Genre=%genre%" %source%
TOC of the extracted CD
Track | Start | Length | Start sector | End sector --------------------------------------------------------- 1 | 0:00.00 | 3:12.53 | 0 | 14452 2 | 3:12.53 | 1:34.62 | 14453 | 21564 3 | 4:47.40 | 1:54.45 | 21565 | 30159 4 | 6:42.10 | 0:53.26 | 30160 | 34160 5 | 7:35.36 | 0:36.34 | 34161 | 36894 6 | 8:11.70 | 7:28.12 | 36895 | 70506 7 | 15:40.07 | 0:56.03 | 70507 | 74709 8 | 16:36.10 | 1:06.72 | 74710 | 79731 9 | 17:43.07 | 1:19.57 | 79732 | 85713 10 | 19:02.64 | 1:53.05 | 85714 | 94193 11 | 20:55.69 | 0:51.40 | 94194 | 98058 12 | 21:47.34 | 6:33.60 | 98059 | 127593 13 | 28:21.19 | 4:03.00 | 127594 | 145818 14 | 32:24.19 | 1:04.59 | 145819 | 150677 15 | 33:29.03 | 5:00.41 | 150678 | 173218 16 | 38:29.44 | 1:38.28 | 173219 | 180596 17 | 40:07.72 | 7:58.28 | 180597 | 216474 18 | 48:06.25 | 1:27.23 | 216475 | 223022 19 | 49:33.48 | 1:42.03 | 223023 | 230675 20 | 51:15.51 | 1:24.64 | 230676 | 237039 21 | 52:40.40 | 2:08.24 | 237040 | 246663 22 | 54:48.64 | 4:19.26 | 246664 | 266114 23 | 59:08.15 | 1:36.44 | 266115 | 273358 24 | 60:44.59 | 4:47.73 | 273359 | 294956 25 | 65:32.57 | 3:42.02 | 294957 | 311608 26 | 69:14.59 | 2:48.33 | 311609 | 324241 27 | 72:03.17 | 1:07.09 | 324242 | 329275 28 | 73:10.26 | 1:09.07 | 329276 | 334457 29 | 74:19.33 | 0:57.09 | 334458 | 338741 30 | 75:16.42 | 5:56.16 | 338742 | 365457
Range status and errors
Selected range
Filename C:\temp\BIS-SACD-2055 - Jacobean Lute Music\Jacobean Lute Music.wav
Peak level 48.1 % Extraction speed 2.3 X Range quality 99.9 % Test CRC 0771B879 Copy CRC 0771B879 Copy OK
No errors occurred
AccurateRip summary
Track 1 accurately ripped (confidence 4) [93A4CEA2] (AR v2)Track 2 accurately ripped (confidence 4) [EAA43116] (AR v2)Track 3 accurately ripped (confidence 4) [0B3B5CAC] (AR v2)Track 4 accurately ripped (confidence 4) [0039C7C1] (AR v2)Track 5 accurately ripped (confidence 4) [99EF6E86] (AR v2)Track 6 accurately ripped (confidence 4) [7F3DA31D] (AR v2)Track 7 accurately ripped (confidence 4) [AE8432CD] (AR v2)Track 8 accurately ripped (confidence 4) [FE419E1A] (AR v2)Track 9 accurately ripped (confidence 4) [4F9D6898] (AR v2)Track 10 accurately ripped (confidence 4) [0F37871D] (AR v2)Track 11 accurately ripped (confidence 4) [649CFA99] (AR v2)Track 12 accurately ripped (confidence 4) [7EA0C678] (AR v2)Track 13 accurately ripped (confidence 4) [DCB9970B] (AR v2)Track 14 accurately ripped (confidence 4) [3DEC3AA2] (AR v2)Track 15 accurately ripped (confidence 4) [2C829AFE] (AR v2)Track 16 accurately ripped (confidence 4) [525A675C] (AR v2)Track 17 accurately ripped (confidence 4) [39D49BE7] (AR v2)Track 18 accurately ripped (confidence 4) [6FB7873E] (AR v2)Track 19 accurately ripped (confidence 4) [8F9F5AE5] (AR v2)Track 20 accurately ripped (confidence 4) [4703E824] (AR v2)Track 21 accurately ripped (confidence 4) [411FB2EC] (AR v2)Track 22 accurately ripped (confidence 4) [01909789] (AR v2)Track 23 accurately ripped (confidence 4) [F28D7133] (AR v2)Track 24 accurately ripped (confidence 4) [05290A04] (AR v2)Track 25 accurately ripped (confidence 4) [1AE6096E] (AR v2)Track 26 accurately ripped (confidence 4) [513B1B56] (AR v2)Track 27 accurately ripped (confidence 4) [B4A261DA] (AR v2)Track 28 accurately ripped (confidence 4) [B32C9494] (AR v2)Track 29 accurately ripped (confidence 4) [AD2845C1] (AR v2)Track 30 accurately ripped (confidence 4) [32864700] (AR v2)
All tracks accurately ripped
End of status report
==== Log checksum 89F437A881D1F9BB91E7520A2F7C54FBED6EA88E418A879517A54F46C9801456 ====



Показать сообщения:    

Текущее время: 10-Дек 23:30

Часовой пояс: UTC + 3


Вы не можете начинать темы
Вы не можете отвечать на сообщения
Вы не можете редактировать свои сообщения
Вы не можете удалять свои сообщения
Вы не можете голосовать в опросах
Вы не можете прикреплять файлы к сообщениям
Вы не можете скачивать файлы