(Classical) Johann Sebastian Bach - Transcriptions of Concertos by Vivaldi & the Marcello Brothers - Sophie Yates - 2013, FLAC (image+.cue) lossless


 

[Цитировать]

Johann Sebastian Bach - Transcriptions of Concertos by Vivaldi & the Marcello Brothers - Sophie Yates
Жанр: Classical
Страна-производитель диска: UK
Год издания диска: 2013
Издатель (лейбл): Chandos Records
Номер по каталогу: CHAN 0796
Дата записи: 2012
Аудиокодек: FLAC
Тип рипа: image+.cue
Битрейт аудио: lossless
Продолжительность: 76:28
Источник: собственный рип
Наличие сканов в содержимом раздачи: да
Треклист:
Johann Sebastian Bach
Transcriptions for solo harpsichord of Concerti by Vivaldi and the Marcello brothers
[1]-[3] Concerto in D major, BWV 972
after Concerto, L’estro armonico, Op. 3 No. 9, RV 230 (Amsterdam, 1711),
by Antonio Vivaldi (1678 – 1741)
[4]-[6] Concerto in G major, BWV 973
after Concerto a cinque stromenti, Op. 7 No. 8, RV 299 (Amsterdam, 1720)
by Antonio Vivaldi
[7]-[9] Concerto in D minor, BWV 974
after Oboe Concerto, from Concerti a cinque (Amsterdam, c. 1717),
by Alessandro Marcello (1669 – 1747)
[10]-[12] Concerto in G minor, BWV 975
after Concerto, La stravaganza, Op. 4 No. 6, RV 316 (Amsterdam, 1716),
by Antonio Vivaldi
[13]-[15] Concerto in C major, BWV 976
after Concerto, L’estro armonico, Op. 3 No. 12, RV 265 (Amsterdam, 1711),
by Antonio Vivaldi
[16]-[18] Concerto in F major, BWV 978
after Concerto, L’estro armonico, Op. 3 No. 3, RV 310 (Amsterdam, 1711),
by Antonio Vivaldi
[19]-[21] Concerto in G major, BWV 980
after Concerto, La stravaganza, Op. 4 No. 1, RV 381 (Amsterdam, 1716),
by Antonio Vivaldi
[22]-[25] Concerto in C minor, BWV 981
after Concerto a cinque, Op. 1 No. 2 (Venice, 1708)
by Benedetto Giacomo Marcello (1686 – 1739)
Исполнители:
Sophie Yates harpsichord

Лог создания рипа

Exact Audio Copy V1.0 beta 3 from 29. August 2011
EAC extraction logfile from 6. November 2014, 1:22
Sophie Yates / Bach - Transcriptions of Concertos by Vivaldi & the Marcello Brothers
Used drive : HL-DT-STDVDRAM GU70N Adapter: 0 ID: 0
Read mode : SecureUtilize accurate stream : YesDefeat audio cache : YesMake use of C2 pointers : No
Read offset correction : 48Overread into Lead-In and Lead-Out : NoFill up missing offset samples with silence : YesDelete leading and trailing silent blocks : NoNull samples used in CRC calculations : YesUsed interface : Native Win32 interface for Win NT & 2000
Used output format : User Defined EncoderSelected bitrate : 128 kBit/sQuality : HighAdd ID3 tag : NoCommand line compressor : C:\Program Files (x86)\Exact Audio Copy\Flac\flac.exeAdditional command line options : -V -8 -T "Date=%year%" -T "Genre=%genre%" %source%
TOC of the extracted CD
Track | Start | Length | Start sector | End sector --------------------------------------------------------- 1 | 0:00.00 | 2:12.34 | 0 | 9933 2 | 2:12.34 | 3:25.74 | 9934 | 25382 3 | 5:38.33 | 2:17.72 | 25383 | 35729 4 | 7:56.30 | 2:36.08 | 35730 | 47437 5 | 10:32.38 | 2:31.08 | 47438 | 58770 6 | 13:03.46 | 2:28.38 | 58771 | 69908 7 | 15:32.09 | 3:12.19 | 69909 | 84327 8 | 18:44.28 | 4:06.73 | 84328 | 102850 9 | 22:51.26 | 3:45.38 | 102851 | 119763 10 | 26:36.64 | 3:01.73 | 119764 | 133411 11 | 29:38.62 | 4:06.54 | 133412 | 151915 12 | 33:45.41 | 1:42.17 | 151916 | 159582 13 | 35:27.58 | 3:39.16 | 159583 | 176023 14 | 39:06.74 | 3:46.49 | 176024 | 193022 15 | 42:53.48 | 3:15.12 | 193023 | 207659 16 | 46:08.60 | 2:26.36 | 207660 | 218645 17 | 48:35.21 | 2:45.65 | 218646 | 231085 18 | 51:21.11 | 2:29.27 | 231086 | 242287 19 | 53:50.38 | 3:43.30 | 242288 | 259042 20 | 57:33.68 | 4:11.49 | 259043 | 277916 21 | 61:45.42 | 2:32.02 | 277917 | 289318 22 | 64:17.44 | 2:26.37 | 289319 | 300305 23 | 66:44.06 | 1:57.67 | 300306 | 309147 24 | 68:41.73 | 2:50.25 | 309148 | 321922 25 | 71:32.23 | 4:53.60 | 321923 | 343957
Range status and errors
Selected range
Filename C:\temp\CHAN_00796 - Bach - Transcriptions of Concertos by Vivaldi & the Marcello Brothers\Bach - Transcriptions of Concertos by Vivaldi & the Marcello Brothers.wav
Peak level 67.2 % Extraction speed 2.3 X Range quality 100.0 % Test CRC E10CDC85 Copy CRC E10CDC85 Copy OK
No errors occurred
AccurateRip summary
Track 1 accurately ripped (confidence 1) [2A27CF6B] (AR v2)Track 2 accurately ripped (confidence 1) [F609A9F3] (AR v2)Track 3 accurately ripped (confidence 1) [BDC4DB32] (AR v2)Track 4 accurately ripped (confidence 1) [4111D8B9] (AR v2)Track 5 accurately ripped (confidence 1) [21913595] (AR v2)Track 6 accurately ripped (confidence 1) [B9F26C5E] (AR v2)Track 7 accurately ripped (confidence 1) [DEA8C699] (AR v2)Track 8 accurately ripped (confidence 1) [3859B6D0] (AR v2)Track 9 accurately ripped (confidence 1) [F07B2F93] (AR v2)Track 10 accurately ripped (confidence 1) [7DCE6865] (AR v2)Track 11 accurately ripped (confidence 1) [A7ECBCA2] (AR v2)Track 12 accurately ripped (confidence 1) [12849628] (AR v2)Track 13 accurately ripped (confidence 1) [880A3854] (AR v2)Track 14 accurately ripped (confidence 1) [8A6150CB] (AR v2)Track 15 accurately ripped (confidence 1) [7A12C7D2] (AR v2)Track 16 accurately ripped (confidence 1) [FDBB2641] (AR v2)Track 17 accurately ripped (confidence 1) [0162B59F] (AR v2)Track 18 accurately ripped (confidence 1) [FA1FB614] (AR v2)Track 19 accurately ripped (confidence 1) [89129A58] (AR v2)Track 20 accurately ripped (confidence 1) [0326D0EB] (AR v2)Track 21 accurately ripped (confidence 1) [C938C2E5] (AR v2)Track 22 accurately ripped (confidence 1) [ED2A950A] (AR v2)Track 23 accurately ripped (confidence 1) [005B5E9A] (AR v2)Track 24 accurately ripped (confidence 1) [0B8C1519] (AR v2)Track 25 accurately ripped (confidence 1) [127EF839] (AR v2)
All tracks accurately ripped
End of status report
==== Log checksum EA7174CC886FFB832D09827E5189D0CF1D33C6302CDF49E16248746F4BEA98FC ====



Показать сообщения:    

Текущее время: 09-Дек 06:58

Часовой пояс: UTC + 3


Вы не можете начинать темы
Вы не можете отвечать на сообщения
Вы не можете редактировать свои сообщения
Вы не можете удалять свои сообщения
Вы не можете голосовать в опросах
Вы не можете прикреплять файлы к сообщениям
Вы не можете скачивать файлы