(Classical) Franz Liszt, Ludwig van Beethoven - Symphonies 4 & 8 (Cyprien Katsaris) - 1987, FLAC (tracks+.cue) lossless


 

[Цитировать]

Franz Liszt, Ludwig van Beethoven - Symphonies 4 & 8
(Cyprien Katsaris)

Жанр: Classical
Страна-производитель диска: W. Germany / Japan
Год издания диска: 1987
Издатель (лейбл): Teldec
Номер по каталогу: 8.43419
Дата записи: 1986-1987
Аудиокодек: FLAC
Тип рипа: tracks+.cue
Битрейт аудио: lossless
Продолжительность: 01:00:35
Источник: собственный рип
Наличие сканов в содержимом раздачи: нет, есть фото в папке Artwork
Треклист:
Symphonie Nr.4 B-dur, op. 60:
01. Adagio Allegro vivace (11:40)
02. Adagio (9:39)
03. Allegro vivace (6:12)
04. Allegro ma non troppo (6:39)
Symphonie Nr.8 F-dur, op. 93:
05. Allegro vivace e con brio (8:55)
06. Allegretto scherzando (4:32)
07. Tempo di Menuetto (4:54)
08. Allegro vivace (8:04)
Исполнители:
Cyprien Katsaris - piano

Лог создания рипа

Exact Audio Copy V1.0 beta 1 from 15. November 2010
EAC extraction logfile from 16. January 2015, 16:12
Cyprien Katsaris / Beethoven, List - Symphonies 4 & 8
Used drive : Optiarc DVD RW AD-7200A Adapter: 0 ID: 0
Read mode : SecureUtilize accurate stream : YesDefeat audio cache : YesMake use of C2 pointers : No
Read offset correction : 48Overread into Lead-In and Lead-Out : NoFill up missing offset samples with silence : YesDelete leading and trailing silent blocks : NoNull samples used in CRC calculations : YesUsed interface : Native Win32 interface for Win NT & 2000Gap handling : Appended to previous track
Used output format : User Defined EncoderSelected bitrate : 768 kBit/sQuality : HighAdd ID3 tag : NoCommand line compressor : C:\Program Files\Exact Audio Copy\Flac\flac.exeAdditional command line options : -8 -V -T "ARTIST=%a" -T "TITLE=%t" -T "ALBUM=%g" -T "DATE=%y" -T "TRACKNUMBER=%n" -T "TOTALTRACKS=%x" -T "GENRE=%m" -T "ALBUMARTIST=%v" -T "ALBUM ARTIST=%v" -T "COMMENT=EAC Secure Mode, Test & Copy, AccurateRip, FLAC -8" %s
TOC of the extracted CD
Track | Start | Length | Start sector | End sector --------------------------------------------------------- 1 | 0:00.32 | 11:40.08 | 32 | 52539 2 | 11:40.40 | 9:38.72 | 52540 | 95961 3 | 21:19.37 | 6:11.45 | 95962 | 123831 4 | 27:31.07 | 6:38.63 | 123832 | 153744 5 | 34:09.70 | 8:55.20 | 153745 | 193889 6 | 43:05.15 | 4:31.57 | 193890 | 214271 7 | 47:36.72 | 4:54.33 | 214272 | 236354 8 | 52:31.30 | 8:04.02 | 236355 | 272656
Track 1
Filename D:\Beethoven, List - Symphonies 4 & 8 (1987) [FLAC] {Cyprien Katsaris}\01 - Symphonie Nr.4 B-dur, op. 60 ~ Adagio Allegro vivace.wav
Pre-gap length 0:00:02.32
Peak level 97.1 % Extraction speed 2.9 X Track quality 100.0 % Test CRC 8CEF153D Copy CRC 8CEF153D Accurately ripped (confidence 5) [85B7FD18] Copy OK
Track 2
Filename D:\Beethoven, List - Symphonies 4 & 8 (1987) [FLAC] {Cyprien Katsaris}\02 - Symphonie Nr.4 B-dur, op. 60 ~ Adagio.wav
Pre-gap length 0:00:04.65
Peak level 58.1 % Extraction speed 3.5 X Track quality 100.0 % Test CRC D68E4FBF Copy CRC D68E4FBF Accurately ripped (confidence 5) [DD08F0E8] Copy OK
Track 3
Filename D:\Beethoven, List - Symphonies 4 & 8 (1987) [FLAC] {Cyprien Katsaris}\03 - Symphonie Nr.4 B-dur, op. 60 ~ Allegro vivace.wav
Pre-gap length 0:00:06.15
Peak level 81.5 % Extraction speed 3.8 X Track quality 100.0 % Test CRC 71AAD3E1 Copy CRC 71AAD3E1 Accurately ripped (confidence 5) [89D75370] Copy OK
Track 4
Filename D:\Beethoven, List - Symphonies 4 & 8 (1987) [FLAC] {Cyprien Katsaris}\04 - Symphonie Nr.4 B-dur, op. 60 ~ Allegro ma non troppo.wav
Pre-gap length 0:00:01.00
Peak level 87.6 % Extraction speed 4.1 X Track quality 100.0 % Test CRC 4585A728 Copy CRC 4585A728 Accurately ripped (confidence 5) [260FDDAF] Copy OK
Track 5
Filename D:\Beethoven, List - Symphonies 4 & 8 (1987) [FLAC] {Cyprien Katsaris}\05 - Symphonie Nr.8 F-dur, op. 93 ~ Allegro vivace e con brio.wav
Pre-gap length 0:00:10.58
Peak level 70.1 % Extraction speed 4.3 X Track quality 99.9 % Test CRC 8CB7D259 Copy CRC 8CB7D259 Accurately ripped (confidence 5) [44047816] Copy OK
Track 6
Filename D:\Beethoven, List - Symphonies 4 & 8 (1987) [FLAC] {Cyprien Katsaris}\06 - Symphonie Nr.8 F-dur, op. 93 ~ Allegretto scherzando.wav
Pre-gap length 0:00:02.68
Peak level 65.4 % Extraction speed 4.6 X Track quality 100.0 % Test CRC C4383F6D Copy CRC C4383F6D Accurately ripped (confidence 5) [40DEA75E] Copy OK
Track 7
Filename D:\Beethoven, List - Symphonies 4 & 8 (1987) [FLAC] {Cyprien Katsaris}\07 - Symphonie Nr.8 F-dur, op. 93 ~ Tempo di Menuetto.wav
Pre-gap length 0:00:03.27
Peak level 68.6 % Extraction speed 4.7 X Track quality 100.0 % Test CRC 7012F838 Copy CRC 7012F838 Accurately ripped (confidence 5) [EABD958A] Copy OK
Track 8
Filename D:\Beethoven, List - Symphonies 4 & 8 (1987) [FLAC] {Cyprien Katsaris}\08 - Symphonie Nr.8 F-dur, op. 93 ~ Allegro vivace.wav
Pre-gap length 0:00:01.18
Peak level 88.5 % Extraction speed 5.2 X Track quality 100.0 % Test CRC 6E52FD71 Copy CRC 6E52FD71 Accurately ripped (confidence 5) [8EC66840] Copy OK
All tracks accurately ripped
No errors occurred
End of status report
==== Log checksum 4300BC9E5A4F50ADF3544CF6CAC7B7942F72E3BB47E88811E746ED3B486637A2 ====

Содержание индексной карты (.CUE)

REM GENRE ClassicalREM DATE 1987REM DISCID 670E3308REM COMMENT "ExactAudioCopy v1.0b1"PERFORMER "Cyprien Katsaris"TITLE "Beethoven, List - Symphonies 4 & 8"FILE "01 - Symphonie Nr.4 B-dur, op. 60 ~ Adagio Allegro vivace.wav" WAVE TRACK 01 AUDIO TITLE "Symphonie Nr.4 B-dur, op. 60 ~ Adagio Allegro vivace" PERFORMER "Cyprien Katsaris" PREGAP 00:00:32 INDEX 01 00:00:00 TRACK 02 AUDIO TITLE "Symphonie Nr.4 B-dur, op. 60 ~ Adagio" PERFORMER "Cyprien Katsaris" INDEX 00 11:35:18FILE "02 - Symphonie Nr.4 B-dur, op. 60 ~ Adagio.wav" WAVE INDEX 01 00:00:00 TRACK 03 AUDIO TITLE "Symphonie Nr.4 B-dur, op. 60 ~ Allegro vivace" PERFORMER "Cyprien Katsaris" INDEX 00 09:32:57FILE "03 - Symphonie Nr.4 B-dur, op. 60 ~ Allegro vivace.wav" WAVE INDEX 01 00:00:00 TRACK 04 AUDIO TITLE "Symphonie Nr.4 B-dur, op. 60 ~ Allegro ma non troppo" PERFORMER "Cyprien Katsaris" INDEX 00 06:10:45FILE "04 - Symphonie Nr.4 B-dur, op. 60 ~ Allegro ma non troppo.wav" WAVE INDEX 01 00:00:00 TRACK 05 AUDIO TITLE "Symphonie Nr.8 F-dur, op. 93 ~ Allegro vivace e con brio" PERFORMER "Cyprien Katsaris" INDEX 00 06:28:05FILE "05 - Symphonie Nr.8 F-dur, op. 93 ~ Allegro vivace e con brio.wav" WAVE INDEX 01 00:00:00 TRACK 06 AUDIO TITLE "Symphonie Nr.8 F-dur, op. 93 ~ Allegretto scherzando" PERFORMER "Cyprien Katsaris" INDEX 00 08:52:27FILE "06 - Symphonie Nr.8 F-dur, op. 93 ~ Allegretto scherzando.wav" WAVE INDEX 01 00:00:00 TRACK 07 AUDIO TITLE "Symphonie Nr.8 F-dur, op. 93 ~ Tempo di Menuetto" PERFORMER "Cyprien Katsaris" INDEX 00 04:28:30FILE "07 - Symphonie Nr.8 F-dur, op. 93 ~ Tempo di Menuetto.wav" WAVE INDEX 01 00:00:00 TRACK 08 AUDIO TITLE "Symphonie Nr.8 F-dur, op. 93 ~ Allegro vivace" PERFORMER "Cyprien Katsaris" INDEX 00 04:53:15FILE "08 - Symphonie Nr.8 F-dur, op. 93 ~ Allegro vivace.wav" WAVE INDEX 01 00:00:00



Показать сообщения:    

Текущее время: 06-Дек 18:57

Часовой пояс: UTC + 3


Вы не можете начинать темы
Вы не можете отвечать на сообщения
Вы не можете редактировать свои сообщения
Вы не можете удалять свои сообщения
Вы не можете голосовать в опросах
Вы не можете прикреплять файлы к сообщениям
Вы не можете скачивать файлы