(Classical) Ludwig van Beethoven - Complete Piano Sonatas (Maurizio Pollini) / Людвиг ван Бетховен - Полное собрание сонат для фортепиано (Маурицио Поллини) - 2014, FLAC (tracks+.cue) lossless


 

[Цитировать]

Ludwig van Beethoven - Complete Piano Sonatas (Maurizio Pollini) / Людвиг ван Бетховен - Полное собрание сонат для фортепиано (Маурицио Поллини)
Жанр: Classical
Страна-производитель диска: EU
Год издания диска: 2014
Издатель (лейбл): Deutsche Grammophon
Номер по каталогу: 00289 479 4120 GM8
Дата записи: 1976-2014
Аудиокодек: FLAC
Тип рипа: tracks+.cue
Битрейт аудио: lossless
Продолжительность: 9:46:12 (1:05:27 + 1:12:49 + 1:09:35 + 1:14:05 + 1:14:20 + 1:16:18 + 1:11:44 + 1:21:54)
Источник: собственный рип
Наличие сканов в содержимом раздачи: да
Треклист:

CD01 ■ Sonatas Op. 2, Nos. 1-3

CD01
Sonata in F minor op. 2 no. 1
f-moll ■ en fa mineur ■ in fa minore
[01] 1. Allegro 5:28
[02] 2. Adagio 4:36
[03] 3. Menuetto. Allegretto 2:39
[04] 4. Prestissimo 6:51
Sonata in A major op. 2 no. 2
A-dur • en la majeur ■ in la maggiore
[05] 1. Allegro vivace 6:41
[06] 2. Largo appassionato 6:34
[07] 3. Scherzo. Allegretto 2:49
[08] 4. Rondo. Grazioso 6:02
Sonata in C major op. 2 no. 3
C-dur ■ en ut majeur ■ in do maggiore
[09] 1. Allegro con brio 9:08
[10] 2. Adagio 6:30
[11] 3. Scherzo. Allegro 2:54
[12] 4. Allegro assai 5:0i
Recording: Munich, Residenz, Herkulessaal, 9/2006

CD02 ■ Sonatas Opp. 7, Op. 14 Nos. 1-2, Op. 22

CD02
Sonata in E flat major op. 7
Es-dur • en mi bémol majeur • in mi bemolle maggiore
[01] 1. Allegro molto e con brio 7:34
[02] 2. Largo, con gran espressione 7:20
[03] 3. Allegro 4:31
[04] 4. Rondo. Poco allegretto e grazioso 6:34
Sonata in E major op. 14 no. 1
E-dur ■ en mi majeur ■ in mi maggiore
[05] 1. Allegro 6:02
[06] 2. Allegretto 2:34
[07] 3. Rondo. Allegro comodo 3:01
Sonata in G major op. 14 no. 2
G-dur ■ en sol majeur • in sol maggiore
[08] 1. Allegro 5:47
[09] 2. Andante 4:54
[10] 3. Scherzo. Allegro assai 3:06
Sonata in B flat major op. 22
B-dur ■ en si bémol majeur • in si bemolle maggiore
[11] 1. Allegro con brio 6:46
[12] 2. Adagio con molta espressione 6:16
[13] 3. Menuetto 3:03
[14] 4. Rondo. Allegretto 5:21
Recordings: Lucerne, KKL, 1/2012:
Munich, Residenz, Herkulessaal, 5 & 6/2012

CD03 ■ Sonatas Op. 10 Nos. 1-3, Op. 13

CD03
Sonata in C minor op. 10 no. 1
c-moll ■ en ut mineur • in do minore
[01] 1. Allegro molto e con brio 5:36
[02] 2. Adagio molto 7:13
[03] 3. Finale. Prestissimo 3:56
Sonata in F major op. 10 no. 2
F-dur • en fa majeur • in fa maggiore
[04] 1. Allegro 7:48
[05] 2. Allegretto 3:18
[06] 3. Presto 3:31
Sonata in D major op. 10 no 3
D-dur ■ en ré majeur ■ in re maggiore
[07] 1. Presto 6:17
[08] 2. Largo e mesto 8:18
[09] 3. Menuetto. Allegro 2:16
[10] 4. Rondo. Allegro 3:36
Sonata in C minor op. 13 "Pathétique"
c-moll • en ut mineur • in do minore
[11] 1. Grave - Allegro di molto e con brio 8:34
[12] 2. Adagio cantabile 4:38
[13] 3. Rondo. Allegro 4:21
Recording: Munich, Residenz, Herkulessaal, 9/2002

CD04 ■ Sonatas Op. 26, Op. 27 Nos. 1-2, Op. 28

CD 04
Sonata in A flat major op. 26
As-dur ■ en la bémol majeur ■ in la bemolle maggiore
[01] 1. Andante con Variazioni 7:22
[02] 2. Scherzo. Allegro molto 2:38
[03] 3. Marcia funebre sulla morte d'un Eroe. Maestoso andante 5:48
[04] 4. Allegro 3:16
Live recording
Sonata in E flat major op. 27 no. 1
Es-dur ■ en mi bémol majeur ■ in mi bemolle maggiore
Sonata quasi una fantasia
[05] 1. Andante - Allegro - Tempo I - attacca: 5:00
[06] 2. Allegro molto e vivace - attacca: 1:54
[07] 3. Adagio con espressione - attacca: 2:54
[08] 4. Allegro vivace 5:19
Sonata in C sharp minor op. 27 no. 2
cis-moll • en ut dièse mineur ■ in do diesis minore
Sonata quasi una fantasia
[09] 1. Adagio sostenuto - attacca: 6:22
[10] 2. Allegretto - attacca: 2:16
[11] 3. Presto agitato 7:11
Sonata in D major op. 28
D-dur • en ré majeur ■ in re maggiore
[12] 1. Allegro 9:35
[13] 2. Andante 7:22
[14] 3. Scherzo. Allegro vivace 2:10
[15] 4. Rondo. Allegro, ma non troppo 4:37
Recordings: Munich, Residenz, Herkulessaal, 5 & 6/1991 (opp. 27, 28);
Vienna, Musikverein, Großer Saal, 1/1997 (op. 26)

CD05 ■ Sonatas Op. 31 Nos. 1-3, Op. 49 Nos. 1-2

CD 05
Sonata in G major op. 31 no. 1
G-dur ■ en sol majeur ■ in sol maggiore
[01] 1. Allegro vivace 5:45
[02] 2. Adagio grazioso 8:54
[03] 3. Rondo. Allegretto 5:24
Sonata in D minor op. 31 no. 2
d-moll • en ré mineur • in re minore
[04] 1. Largo - Allegro 7:43
[05] 2. Adagio 7:08
[06] 3. Allegretto 5:51
Sonata in E flat major op. 31 no. 3
Es-dur ■ en mi bémol majeur • in mi bemolle maggiore
[07] 1. Allegro 7:12
[08] 2. Scherzo. Allegretto vivace 4:41
[09] 3. Menuetto. Moderato e grazioso 3:38
[10] 4. Presto con fuoco 4:12
Sonata in G minor op. 49 no. 1
g-moll • en sol mineur • in sol minore
[11] 1. Andante 3:41
[12] 2. Rondo. Allegro 3:01
Sonata in G major op. 49 no. 2
G-dur • en sol majeur • in sol maggiore
[13] 1. Allegro, ma non troppo 4:01
[14] 2. Tempo di Menuetto 3:09
Recordings: Munich, Residenz, Herkulessaal, 6/2013 & 6/2014

CD06 ■ Sonatas Opp. 53, 54, 57, 78, 79

CD 06
Sonata in C major op. 53 "Waldstein"
C-dur • en ut majeur ■ in do maggiore
[01] 1. Allegro con brio 9:59
[02] 2. Introduzione. Adagio molto - attacca: 3:54
[03] 3. Rondo. Allegretto moderato - Prestissimo 9:50
Live recording
Sonata in F major op. 54
F-dur ■ en fa majeur • in fa maggiore
[04] 1. In tempo d'un Menuetto 5:04
[05] 2. Allegretto 5:28
Sonata in F minor op. 57
f-moll • en fa mineur • in fa minore
[06] 1. Allegro assai 9:20
[07] 2. Andante con moto - attacca: 5:57
[08] 3. Allegro, ma non troppo - Presto 7:57
Sonata in F sharp major op. 78
Fis-dur • en fa dièse majeur • in fa diesis maggiore
[09] 1. Adagio cantabile - Allegro, ma non troppo 6:59
[10] 2. Allegro vivace 2:49
Sonata in G major op. 79
G-dur ■ en sol majeur • in sol maggiore
[11] 1. Presto alla tedesca 4:03
[12] 2. Andante 3:17
[13] 3. Vivace 1:41
Recordings: Munich, Residenz, Herkulessaal, 6/1988 (op. 79); 6/2002 (opp. 54, 57, 78);
Vienna, Musikverein, Großer Saal, 2/1997 (op. 53)

CD07 ■ Sonatas Opp. 81a, 90, 106

CD 07
Sonata in E flat major op. 81a
Es-dur ■ en mi bémol majeur ■ in mi bemolle maggiore
[01] 1. Das Lebewohl (Les Adieux). Adagio - Allegro 7:12
[02] 2. Abwesenheit (L'Absence). Andante espressivo 3:20
[03] 3. Das Wiedersehn (Le Retour). Vivacissimamente 5:33
Sonata in E minor op. 90
e-moll • en mi mineur ■ in mi minore
[04] 1. Mit Lebhaftigkeit und durchaus mit Empfindung und Ausdruck 5:23
[05] 2. Nicht zu geschwind und sehr singbar vorzutragen 7:15
Sonata in B flat major op. 106 "Hammerklavier"
B-dur ■ en si bémol majeur ■ in si bemolle maggiore
[06] 1. Allegro 10:46
[07] 2. Scherzo. Assai vivace 2:43
[08] 3. Adagio sostenuto. Appassionato e con molto sentimento 17:12
[09] 4. Largo - Allegro risoluto 12:20
Recordings: Munich. Residenz, Herkulessaal, 9/1976 (op. 106);
6/1988 (op. 81a); 6/2002 (op. 90)

CD08 ■ Sonatas Opp. 101, 109, 110, 111

CD 08
Sonata in A major op. 101
A-dur ■ en la majeur • in la maggiore
[01] 1. Etwas lebhaft und mit der innigsten Empfindung. Allegretto, ma non troppo 3:47
[02] 2. Lebhaft, marschmäßig. Vivace alla Marcia 6:14
[03] 3. Langsam und sehnsuchtsvoll. Adagio, ma non troppo, con affetto - attacca: 2:45
[04] 4. Geschwinde, doch nicht zu sehr und mit Entschlossenheit. Allegro 7:23
Sonata in E major op. 109
E-dur ■ en mi majeur • in mi maggiore
[05] 1. Vivace, ma non troppo 3:16
[06] 2. Prestissimo 2:16
[07] 3. Gesangvoll, mit innigster Empfindung. 12:30
Andante molto cantabile ed espressivo
Sonata in A flat major op. 110
As-dur ■ en la bémol majeur • in la bemolle maggiore
[08] 1. Moderato cantabile molto espressivo 6:03
[09] 2. Allegro molto 1:57
[10] 3. Adagio, ma non troppo - Fuga. Allegro, ma non troppo 9:33
Sonata in C minor op. 111
c-moll ■ en ut mineur • in do minore
[11] 1. Maestoso - Allegro con brio ed appassionato 8:47
[12] 2. Arietta. Adagio molto semplice e cantabile 17:23
Recordings: Munich, Residenz, Herkulessaal, 6/1975 (opp. 109, 110);
Vienna, Musikverein Großer Saal, 1/1977 (opp. 101, 111)
ВНИМАНИЕ! Торрент перезалит, удалены лишние картинки из сканов, кое-что переименовано, добавлен, кроме отсканирвоанного буклета, он же в виде пдф (выбирайте, кому какой нравится), в остальном ничего не изменилось. Скачайте, плиз, заново. С Новым годом!!!

Про "дыхание" маэстро, которое часто мешает воспринимать его игру, или Deutsche Grammophon говорит "ну не шмагла я"

Как известно, маэстро Поллини грешит тем, что кроме звуков музыкальных, извлекаемых из пианино, издает и другие, лишь в меру музыкальные, а иногда и музыкальные, но не руками, а ртом. Не знаю, как кому, а мне это сильно мешает. Так сильно, что я в сердцах написал в Дойче Граммофон, мол, что за чёрт и нельзя ли было это удалить из записи. Написал, конечно, ни в малой степени не ожидая ответа. И однако - я его получил! Непосредственно от продюсера записи. Толку, конечно, никакого, но почитайте - вежливость, как говорится, превыше всего, и спасибо DG, что они реагируют на письма слушателей. Хотя я бы предпочел, чтобы они просто выпускали "чистые" дубли, а не извинялись. Арфаграфия аффтара песьма, который еще и мою фамилию переврал (я думал, не написать ли ему тоже в ответ с опечаткой в его фамилии), сохранена.
Dear Sir,
You are right that Pollini's breathing is audible in some places, and I am sorry if this is so loud as to lessen your pleasure in his playing. It is a problem which he, too, is aware of... in fact he sings along quite a bit too though not to the extent of many pianists, such as Rudolf Serkin.
If we were to try and avoid hearing any noises from him at all we would have to microphone the piano within a meter of the soundboard which would not be at all what Pollini likes. It is not possible to set up the microphones that you would not hear him if he makes a noise. I do make an effort during the recording to make sure that we have at least one clean version of everything, and often ask Maurizio to try and remember not to make a noise - there are certain neuralgic points which always seem to inspire him to sing, groan or breathe deeply. I remember the sessions for the opus 2 recording as being expecially problematic, perhaps because he had just given up smoking.
When playing back to him in Milano towards the end of the editing process he was not happy musically with a couple of passages. There were alternatives for some of these places without singing or breathing, butthere were passages where the only takes he felt portrayed his intentions had some breathing on them. We thought that they were not so disturbing that they could not be used.
Contrary to your assumption in the first paragraph, the breathing has not been mentioned neagtively in reviews and yours is the first communication received at DGG. Noises are very subjectively experienced and I often ask the engineer, sitting next to me in the control room, whether something which bothers me is a niusance to him and he replies it is fine. The reverse also happens, he will tell me there is a noise which annoys him which I find almost laughably insignificant.
I am sorry if we have let you down here but hope that you will learn to love these recordings as I do, warts and all.
Best wishes,
Christopher Alder
Recording Producer
Исполнители:
Maurizio Pollini, piano / Маурицио Поллини, фортепиано

Лог создания рипаCD01 ■ Sonatas Op. 2, Nos. 1-3

Exact Audio Copy V1.0 beta 3 from 29. August 2011
Отчёт EAC об извлечении, выполненном 29. декабря 2014, 17:45
Ludwig van Beethoven / Maurizio Pollini / Complete Piano Sonatas, CD01
Дисковод: MATSHITABD-MLT UJ240ES Adapter: 2 ID: 0
Режим чтения : Достоверность
Использование точного потока : Да
Отключение кэша аудио : Да
Использование указателей C2 : Нет
Коррекция смещения при чтении : 103
Способность читать области Lead-in и Lead-out : Нет
Заполнение пропущенных сэмплов тишиной : Да
Удаление блоков с тишиной в начале и конце : Нет
При вычислениях CRC использовались нулевые сэмплы : Да
Интерфейс : Встроенный Win32-интерфейс для Win NT/2000
Обработка зазоров : Добавлено к предыдущему треку
Выходной формат : Пользовательский кодировщик
Выбранный битрейт : 1024 kBit/s
Качество : Высокий
Добавление ID3-тега : Нет
Утилита сжатия : C:\Program Files (x86)\Exact Audio Copy\Flac\flac.exe
Дополнительные параметры : -V -8 -T "Genre=%genre%" -T "Artist=%artist%" -T "Title=%title%" -T "Album=%albumtitle%" -T "Date=%year%" -T "Tracknumber=%tracknr%" -T "Comment=%comment%" %source%
TOC извлечённого CD
Трек | Старт | Длительность | Начальный сектор | Конечный сектор
---------------------------------------------------------------------
1 | 0:00.00 | 5:28.19 | 0 | 24618
2 | 5:28.19 | 4:35.59 | 24619 | 45302
3 | 10:04.03 | 2:39.03 | 45303 | 57230
4 | 12:43.06 | 6:59.37 | 57231 | 88692
5 | 19:42.43 | 6:40.64 | 88693 | 118756
6 | 26:23.32 | 6:34.17 | 118757 | 148323
7 | 32:57.49 | 2:48.50 | 148324 | 160973
8 | 35:46.24 | 6:07.53 | 160974 | 188551
9 | 41:54.02 | 9:08.00 | 188552 | 229651
10 | 51:02.02 | 6:30.18 | 229652 | 258919
11 | 57:32.20 | 2:53.67 | 258920 | 271961
12 | 60:26.12 | 5:00.54 | 271962 | 294515
Трек 1
Имя файла C:\Users\Nornore\Documents\EAC rips\Beethoven-Pollini-CompletePianoSonatas\CompletePianoSonatas01\01. Sonata No. 1 in F minor, Op. 2,1 - 1. Allegro.wav
Длина предзазора 0:00:02.00
Пиковый уровень 95.6 %
Скорость извлечения 2.7 X
Качество трека 100.0 %
CRC теста A4D6149E
CRC копии A4D6149E
Точное извлечение (достоверность 22) [72690020] (AR v2)
Копирование... OK
Трек 2
Имя файла C:\Users\Nornore\Documents\EAC rips\Beethoven-Pollini-CompletePianoSonatas\CompletePianoSonatas01\02. Sonata No. 1 in F minor, Op. 2,1 - 2. Adagio.wav
Пиковый уровень 27.1 %
Скорость извлечения 2.9 X
Качество трека 100.0 %
CRC теста F24239C8
CRC копии F24239C8
Точное извлечение (достоверность 22) [A301530A] (AR v2)
Копирование... OK
Трек 3
Имя файла C:\Users\Nornore\Documents\EAC rips\Beethoven-Pollini-CompletePianoSonatas\CompletePianoSonatas01\03. Sonata No. 1 in F minor, Op. 2,1 - 3. Menuetto- Allegretto.wav
Пиковый уровень 65.8 %
Скорость извлечения 2.5 X
Качество трека 99.9 %
CRC теста B792DE53
CRC копии B792DE53
Точное извлечение (достоверность 22) [132A8082] (AR v2)
Копирование... OK
Трек 4
Имя файла C:\Users\Nornore\Documents\EAC rips\Beethoven-Pollini-CompletePianoSonatas\CompletePianoSonatas01\04. Sonata No. 1 in F minor, Op. 2,1 - 4. Prestissimo.wav
Пиковый уровень 74.5 %
Скорость извлечения 3.6 X
Качество трека 100.0 %
CRC теста 065E13D6
CRC копии 065E13D6
Точное извлечение (достоверность 22) [45DB76EB] (AR v2)
Копирование... OK
Трек 5
Имя файла C:\Users\Nornore\Documents\EAC rips\Beethoven-Pollini-CompletePianoSonatas\CompletePianoSonatas01\05. Sonata No. 2 in A major, Op. 2,2 - 1. Allegro vivace.wav
Длина предзазора 0:00:08.32
Пиковый уровень 49.8 %
Скорость извлечения 3.9 X
Качество трека 100.0 %
CRC теста CC2C76FA
CRC копии CC2C76FA
Точное извлечение (достоверность 22) [F764E6E7] (AR v2)
Копирование... OK
Трек 6
Имя файла C:\Users\Nornore\Documents\EAC rips\Beethoven-Pollini-CompletePianoSonatas\CompletePianoSonatas01\06. Sonata No. 2 in A major, Op. 2,2 - 2. Largo appassionato.wav
Пиковый уровень 56.9 %
Скорость извлечения 4.2 X
Качество трека 100.0 %
CRC теста B3485450
CRC копии B3485450
Точное извлечение (достоверность 22) [A7073019] (AR v2)
Копирование... OK
Трек 7
Имя файла C:\Users\Nornore\Documents\EAC rips\Beethoven-Pollini-CompletePianoSonatas\CompletePianoSonatas01\07. Sonata No. 2 in A major, Op. 2,2 - 3. Scherzo- Allegretto.wav
Пиковый уровень 59.7 %
Скорость извлечения 3.4 X
Качество трека 99.9 %
CRC теста 1588FE5B
CRC копии 1588FE5B
Точное извлечение (достоверность 22) [86FE71B1] (AR v2)
Копирование... OK
Трек 8
Имя файла C:\Users\Nornore\Documents\EAC rips\Beethoven-Pollini-CompletePianoSonatas\CompletePianoSonatas01\08. Sonata No. 2 in A major, Op. 2,2 - 4. Rondo- Grazioso.wav
Пиковый уровень 51.4 %
Скорость извлечения 4.6 X
Качество трека 100.0 %
CRC теста 8F10C19D
CRC копии 8F10C19D
Точное извлечение (достоверность 22) [979A9511] (AR v2)
Копирование... OK
Трек 9
Имя файла C:\Users\Nornore\Documents\EAC rips\Beethoven-Pollini-CompletePianoSonatas\CompletePianoSonatas01\09. Sonata No. 3 in C major, Op. 2,3 - 1. Allegro con brio.wav
Длина предзазора 0:00:05.73
Пиковый уровень 70.2 %
Скорость извлечения 5.0 X
Качество трека 100.0 %
CRC теста 5110961C
CRC копии 5110961C
Точное извлечение (достоверность 22) [40BBA3B0] (AR v2)
Копирование... OK
Трек 10
Имя файла C:\Users\Nornore\Documents\EAC rips\Beethoven-Pollini-CompletePianoSonatas\CompletePianoSonatas01\10. Sonata No. 3 in C major, Op. 2,3 - 2. Adagio.wav
Пиковый уровень 48.8 %
Скорость извлечения 5.2 X
Качество трека 100.0 %
CRC теста A09143C8
CRC копии A09143C8
Точное извлечение (достоверность 21) [18B55EE3] (AR v2)
Копирование... OK
Трек 11
Имя файла C:\Users\Nornore\Documents\EAC rips\Beethoven-Pollini-CompletePianoSonatas\CompletePianoSonatas01\11. Sonata No. 3 in C major, Op. 2,3 - 3. Scherzo- Allegro.wav
Пиковый уровень 67.3 %
Скорость извлечения 4.8 X
Качество трека 100.0 %
CRC теста F863DFFB
CRC копии F863DFFB
Точное извлечение (достоверность 21) [0F305FC7] (AR v2)
Копирование... OK
Трек 12
Имя файла C:\Users\Nornore\Documents\EAC rips\Beethoven-Pollini-CompletePianoSonatas\CompletePianoSonatas01\12. Sonata No. 3 in C major, Op. 2,3 - 4. Allegro assai.wav
Пиковый уровень 75.0 %
Скорость извлечения 5.3 X
Качество трека 100.0 %
CRC теста 1D34BB86
CRC копии 1D34BB86
Точное извлечение (достоверность 21) [6B0715BB] (AR v2)
Копирование... OK
Все треки извлечены точно
Ошибок не произошло
Конец отчёта
==== Контрольная сумма отчёта CF7624041CB388708A859D0CA390F4A3DA159E9A8E201150DC860351B1E6B794 ====

CD02 ■ Sonatas Opp. 7, Op. 14 Nos. 1-2, Op. 22

Exact Audio Copy V1.0 beta 3 from 29. August 2011
Отчёт EAC об извлечении, выполненном 29. декабря 2014, 21:01
Ludwig van Beethoven / Maurizio Pollini / Complete Piano Sonatas, CD02
Дисковод: MATSHITABD-MLT UJ240ES Adapter: 2 ID: 0
Режим чтения : Достоверность
Использование точного потока : Да
Отключение кэша аудио : Да
Использование указателей C2 : Нет
Коррекция смещения при чтении : 103
Способность читать области Lead-in и Lead-out : Нет
Заполнение пропущенных сэмплов тишиной : Да
Удаление блоков с тишиной в начале и конце : Нет
При вычислениях CRC использовались нулевые сэмплы : Да
Интерфейс : Встроенный Win32-интерфейс для Win NT/2000
Обработка зазоров : Добавлено к предыдущему треку
Выходной формат : Пользовательский кодировщик
Выбранный битрейт : 1024 kBit/s
Качество : Высокий
Добавление ID3-тега : Нет
Утилита сжатия : C:\Program Files (x86)\Exact Audio Copy\Flac\flac.exe
Дополнительные параметры : -V -8 -T "Genre=%genre%" -T "Artist=%artist%" -T "Title=%title%" -T "Album=%albumtitle%" -T "Date=%year%" -T "Tracknumber=%tracknr%" -T "Comment=%comment%" %source%
TOC извлечённого CD
Трек | Старт | Длительность | Начальный сектор | Конечный сектор
---------------------------------------------------------------------
1 | 0:00.00 | 7:34.04 | 0 | 34053
2 | 7:34.04 | 7:20.05 | 34054 | 67058
3 | 14:54.09 | 4:30.51 | 67059 | 87359
4 | 19:24.60 | 6:34.01 | 87360 | 116910
5 | 25:58.61 | 6:01.37 | 116911 | 144022
6 | 32:00.23 | 2:34.11 | 144023 | 155583
7 | 34:34.34 | 3:00.64 | 155584 | 169147
8 | 37:35.23 | 5:46.73 | 169148 | 195170
9 | 43:22.21 | 4:54.01 | 195171 | 217221
10 | 48:16.22 | 3:05.45 | 217222 | 231141
11 | 51:21.67 | 6:45.67 | 231142 | 261583
12 | 58:07.59 | 6:15.62 | 261584 | 289770
13 | 64:23.46 | 3:03.08 | 289771 | 303503
14 | 67:26.54 | 5:21.01 | 303504 | 327579
Трек 1
Имя файла C:\Users\Nornore\Documents\EAC rips\Beethoven-Pollini-CompletePianoSonatas\CompletePianoSonatas02\01. Beethoven- Piano Sonata No.4 in E flat major, Op.7 - 1. Allegro molto e con brio.wav
Длина предзазора 0:00:02.00
Пиковый уровень 93.4 %
Скорость извлечения 0.8 X
Качество трека 100.0 %
CRC теста D7A645ED
CRC копии D7A645ED
Точное извлечение (достоверность 15) [BCEB00C8] (AR v2)
Копирование... OK
Трек 2
Имя файла C:\Users\Nornore\Documents\EAC rips\Beethoven-Pollini-CompletePianoSonatas\CompletePianoSonatas02\02. Beethoven- Piano Sonata No.4 in E flat major, Op.7 - 2. Largo, con gran espressione.wav
Пиковый уровень 75.2 %
Скорость извлечения 1.0 X
Качество трека 100.0 %
CRC теста 15BD1DA4
CRC копии 15BD1DA4
Точное извлечение (достоверность 15) [1357A3FB] (AR v2)
Копирование... OK
Трек 3
Имя файла C:\Users\Nornore\Documents\EAC rips\Beethoven-Pollini-CompletePianoSonatas\CompletePianoSonatas02\03. Beethoven- Piano Sonata No.4 in E flat major, Op.7 - 3. Allegro.wav
Пиковый уровень 73.3 %
Скорость извлечения 1.0 X
Качество трека 100.0 %
CRC теста C92C121A
CRC копии C92C121A
Точное извлечение (достоверность 15) [7A798164] (AR v2)
Копирование... OK
Трек 4
Имя файла C:\Users\Nornore\Documents\EAC rips\Beethoven-Pollini-CompletePianoSonatas\CompletePianoSonatas02\04. Beethoven- Piano Sonata No.4 in E flat major, Op.7 - 4. Rondo. Poco allegretto e grazioso.wav
Пиковый уровень 75.0 %
Скорость извлечения 1.2 X
Качество трека 100.0 %
CRC теста CF0EC78E
CRC копии CF0EC78E
Точное извлечение (достоверность 15) [BF5C5F3C] (AR v2)
Копирование... OK
Трек 5
Имя файла C:\Users\Nornore\Documents\EAC rips\Beethoven-Pollini-CompletePianoSonatas\CompletePianoSonatas02\05. Beethoven- Piano Sonata No.9 in E major, Op.14 No.1 - 1. Allegro.wav
Пиковый уровень 71.4 %
Скорость извлечения 1.2 X
Качество трека 100.0 %
CRC теста 5C3024E4
CRC копии 5C3024E4
Точное извлечение (достоверность 15) [57BA03B1] (AR v2)
Копирование... OK
Трек 6
Имя файла C:\Users\Nornore\Documents\EAC rips\Beethoven-Pollini-CompletePianoSonatas\CompletePianoSonatas02\06. Beethoven- Piano Sonata No.9 in E major, Op.14 No.1 - 2. Allegretto.wav
Пиковый уровень 58.5 %
Скорость извлечения 1.1 X
Качество трека 100.0 %
CRC теста 6AF598FD
CRC копии 6AF598FD
Точное извлечение (достоверность 15) [31EA5534] (AR v2)
Копирование... OK
Трек 7
Имя файла C:\Users\Nornore\Documents\EAC rips\Beethoven-Pollini-CompletePianoSonatas\CompletePianoSonatas02\07. Beethoven- Piano Sonata No.9 in E major, Op.14 No.1 - 3. Rondo. Allegro comodo.wav
Пиковый уровень 83.8 %
Скорость извлечения 1.2 X
Качество трека 100.0 %
CRC теста E9A2ED5F
CRC копии E9A2ED5F
Точное извлечение (достоверность 15) [A15FCC78] (AR v2)
Копирование... OK
Трек 8
Имя файла C:\Users\Nornore\Documents\EAC rips\Beethoven-Pollini-CompletePianoSonatas\CompletePianoSonatas02\08. Beethoven- Piano Sonata No.10 in G major, Op.14 No.2 - 1. Allegro.wav
Пиковый уровень 73.4 %
Скорость извлечения 1.4 X
Качество трека 100.0 %
CRC теста 99367BFE
CRC копии 99367BFE
Точное извлечение (достоверность 15) [04E9F3DA] (AR v2)
Копирование... OK
Трек 9
Имя файла C:\Users\Nornore\Documents\EAC rips\Beethoven-Pollini-CompletePianoSonatas\CompletePianoSonatas02\09. Beethoven- Piano Sonata No.10 in G major, Op.14 No.2 - 2. Andante.wav
Пиковый уровень 97.4 %
Скорость извлечения 1.4 X
Качество трека 100.0 %
CRC теста C219D650
CRC копии C219D650
Точное извлечение (достоверность 15) [AD72622E] (AR v2)
Копирование... OK
Трек 10
Имя файла C:\Users\Nornore\Documents\EAC rips\Beethoven-Pollini-CompletePianoSonatas\CompletePianoSonatas02\10. Beethoven- Piano Sonata No.10 in G major, Op.14 No.2 - 3. Scherzo. Allegro assai.wav
Пиковый уровень 66.9 %
Скорость извлечения 1.2 X
Качество трека 99.9 %
CRC теста B5EC793A
CRC копии B5EC793A
Точное извлечение (достоверность 15) [B88AD81B] (AR v2)
Копирование... OK
Трек 11
Имя файла C:\Users\Nornore\Documents\EAC rips\Beethoven-Pollini-CompletePianoSonatas\CompletePianoSonatas02\11. Beethoven- Piano Sonata No.11 in B flat major, Op.22 - 1. Allegro con brio.wav
Пиковый уровень 77.2 %
Скорость извлечения 1.6 X
Качество трека 100.0 %
CRC теста 25DED46F
CRC копии 25DED46F
Точное извлечение (достоверность 15) [E80F6319] (AR v2)
Копирование... OK
Трек 12
Имя файла C:\Users\Nornore\Documents\EAC rips\Beethoven-Pollini-CompletePianoSonatas\CompletePianoSonatas02\12. Beethoven- Piano Sonata No.11 in B flat major, Op.22 - 2. Adagio con molto espressione.wav
Пиковый уровень 43.6 %
Скорость извлечения 1.5 X
Качество трека 99.9 %
CRC теста 060F121B
CRC копии 060F121B
Точное извлечение (достоверность 14) [D3FFFC49] (AR v2)
Копирование... OK
Трек 13
Имя файла C:\Users\Nornore\Documents\EAC rips\Beethoven-Pollini-CompletePianoSonatas\CompletePianoSonatas02\13. Beethoven- Piano Sonata No.11 in B flat major, Op.22 - 3. Menuetto.wav
Пиковый уровень 76.7 %
Скорость извлечения 1.5 X
Качество трека 100.0 %
CRC теста 11229639
CRC копии 11229639
Точное извлечение (достоверность 15) [4621A404] (AR v2)
Копирование... OK
Трек 14
Имя файла C:\Users\Nornore\Documents\EAC rips\Beethoven-Pollini-CompletePianoSonatas\CompletePianoSonatas02\14. Beethoven- Piano Sonata No.11 in B flat major, Op.22 - 4. Rondo. Allegretto.wav
Пиковый уровень 73.6 %
Скорость извлечения 1.5 X
Качество трека 99.9 %
CRC теста 3CAA5615
CRC копии 3CAA5615
Точное извлечение (достоверность 15) [C441B92F] (AR v2)
Копирование... OK
Все треки извлечены точно
Ошибок не произошло
Конец отчёта
==== Контрольная сумма отчёта 8B65F9A183C0195E125F55EE935FFA4A2F0F7D6281304A412D1E14723069B4C6 ====

CD03 ■ Sonatas Op. 10 Nos. 1-3, Op. 13

Exact Audio Copy V1.0 beta 3 from 29. August 2011
Отчёт EAC об извлечении, выполненном 29. декабря 2014, 23:47
Ludwig van Beethoven / Maurizio Pollini / Complete Piano Sonatas, CD03
Дисковод: MATSHITABD-MLT UJ240ES Adapter: 2 ID: 0
Режим чтения : Достоверность
Использование точного потока : Да
Отключение кэша аудио : Да
Использование указателей C2 : Нет
Коррекция смещения при чтении : 103
Способность читать области Lead-in и Lead-out : Нет
Заполнение пропущенных сэмплов тишиной : Да
Удаление блоков с тишиной в начале и конце : Нет
При вычислениях CRC использовались нулевые сэмплы : Да
Интерфейс : Встроенный Win32-интерфейс для Win NT/2000
Обработка зазоров : Добавлено к предыдущему треку
Выходной формат : Пользовательский кодировщик
Выбранный битрейт : 1024 kBit/s
Качество : Высокий
Добавление ID3-тега : Нет
Утилита сжатия : C:\Program Files (x86)\Exact Audio Copy\Flac\flac.exe
Дополнительные параметры : -V -8 -T "Genre=%genre%" -T "Artist=%artist%" -T "Title=%title%" -T "Album=%albumtitle%" -T "Date=%year%" -T "Tracknumber=%tracknr%" -T "Comment=%comment%" %source%
TOC извлечённого CD
Трек | Старт | Длительность | Начальный сектор | Конечный сектор
---------------------------------------------------------------------
1 | 0:00.00 | 5:35.61 | 0 | 25185
2 | 5:35.61 | 7:13.35 | 25186 | 57695
3 | 12:49.21 | 3:57.47 | 57696 | 75517
4 | 16:46.68 | 7:48.13 | 75518 | 110630
5 | 24:35.06 | 3:17.47 | 110631 | 125452
6 | 27:52.53 | 3:33.58 | 125453 | 141485
7 | 31:26.36 | 6:16.62 | 141486 | 169747
8 | 37:43.23 | 8:18.29 | 169748 | 207126
9 | 46:01.52 | 2:16.25 | 207127 | 217351
10 | 48:18.02 | 3:44.06 | 217352 | 234157
11 | 52:02.08 | 8:33.54 | 234158 | 272686
12 | 60:35.62 | 4:37.43 | 272687 | 293504
13 | 65:13.30 | 4:21.29 | 293505 | 313108
Трек 1
Имя файла C:\Users\Nornore\Documents\EAC rips\Beethoven-Pollini-CompletePianoSonatas\CompletePianoSonatas03\01. Beethoven‧Piano Sonata No.5 in C minor, Op.10 No.1:I. Allegro molto e con brio.wav
Длина предзазора 0:00:02.00
Пиковый уровень 92.8 %
Скорость извлечения 0.8 X
Качество трека 100.0 %
CRC теста 913D68C5
CRC копии 913D68C5
Точное извлечение (достоверность 24) [2127C761] (AR v2)
Копирование... OK
Трек 2
Имя файла C:\Users\Nornore\Documents\EAC rips\Beethoven-Pollini-CompletePianoSonatas\CompletePianoSonatas03\02. Beethoven‧Piano Sonata No.5 in C minor, Op.10 No.1:II. Adagio molto.wav
Пиковый уровень 73.6 %
Скорость извлечения 0.9 X
Качество трека 100.0 %
CRC теста 87D01B18
CRC копии 87D01B18
Точное извлечение (достоверность 23) [C3009FF4] (AR v2)
Копирование... OK
Трек 3
Имя файла C:\Users\Nornore\Documents\EAC rips\Beethoven-Pollini-CompletePianoSonatas\CompletePianoSonatas03\03. Beethoven‧Piano Sonata No.5 in C minor, Op.10 No.1:III. Finale. Prestissimo.wav
Пиковый уровень 86.4 %
Скорость извлечения 1.0 X
Качество трека 100.0 %
CRC теста 320D9FD0
CRC копии 320D9FD0
Точное извлечение (достоверность 24) [B9F2E510] (AR v2)
Копирование... OK
Трек 4
Имя файла C:\Users\Nornore\Documents\EAC rips\Beethoven-Pollini-CompletePianoSonatas\CompletePianoSonatas03\04. Beethoven‧Piano Sonata No.6 in F major, Op.10 No.2:I. Allegro.wav
Длина предзазора 0:00:01.40
Пиковый уровень 87.7 %
Скорость извлечения 1.1 X
Качество трека 100.0 %
CRC теста 89F1037C
CRC копии 89F1037C
Точное извлечение (достоверность 24) [D43CDEBF] (AR v2)
Копирование... OK
Трек 5
Имя файла C:\Users\Nornore\Documents\EAC rips\Beethoven-Pollini-CompletePianoSonatas\CompletePianoSonatas03\05. Beethoven‧Piano Sonata No.6 in F major, Op.10 No.2:II. Allegretto.wav
Пиковый уровень 76.2 %
Скорость извлечения 1.1 X
Качество трека 100.0 %
CRC теста 8362E263
CRC копии 8362E263
Точное извлечение (достоверность 24) [A85B4253] (AR v2)
Копирование... OK
Трек 6
Имя файла C:\Users\Nornore\Documents\EAC rips\Beethoven-Pollini-CompletePianoSonatas\CompletePianoSonatas03\06. Beethoven‧Piano Sonata No.6 in F major, Op.10 No.2:III. Presto.wav
Пиковый уровень 67.4 %
Скорость извлечения 1.0 X
Качество трека 99.9 %
CRC теста 86BB5EA7
CRC копии 86BB5EA7
Точное извлечение (достоверность 24) [71F8D2E8] (AR v2)
Копирование... OK
Трек 7
Имя файла C:\Users\Nornore\Documents\EAC rips\Beethoven-Pollini-CompletePianoSonatas\CompletePianoSonatas03\07. Beethoven‧Piano Sonata No.7 in D major, Op.10 No.3:I. Presto.wav
Длина предзазора 0:00:03.14
Пиковый уровень 99.0 %
Скорость извлечения 1.2 X
Качество трека 99.9 %
CRC теста FA515553
CRC копии FA515553
Точное извлечение (достоверность 24) [D8F9385F] (AR v2)
Копирование... OK
Трек 8
Имя файла C:\Users\Nornore\Documents\EAC rips\Beethoven-Pollini-CompletePianoSonatas\CompletePianoSonatas03\08. Beethoven‧Piano Sonata No.7 in D major, Op.10 No.3:II. Largo e mesto.wav
Пиковый уровень 86.6 %
Скорость извлечения 1.4 X
Качество трека 100.0 %
CRC теста 7ECF70E9
CRC копии 7ECF70E9
Точное извлечение (достоверность 24) [1CB2D5D2] (AR v2)
Копирование... OK
Трек 9
Имя файла C:\Users\Nornore\Documents\EAC rips\Beethoven-Pollini-CompletePianoSonatas\CompletePianoSonatas03\09. Beethoven‧Piano Sonata No.7 in D major, Op.10 No.3:III. Menuetto. Allegro.wav
Пиковый уровень 75.1 %
Скорость извлечения 1.3 X
Качество трека 100.0 %
CRC теста 7C850083
CRC копии 7C850083
Точное извлечение (достоверность 24) [596D7BA3] (AR v2)
Копирование... OK
Трек 10
Имя файла C:\Users\Nornore\Documents\EAC rips\Beethoven-Pollini-CompletePianoSonatas\CompletePianoSonatas03\10. Beethoven‧Piano Sonata No.7 in D major, Op.10 No.3:IV. Rondo. Allegro.wav
Пиковый уровень 75.6 %
Скорость извлечения 1.2 X
Качество трека 99.9 %
CRC теста A9165F07
CRC копии A9165F07
Точное извлечение (достоверность 24) [B2AD92FB] (AR v2)
Копирование... OK
Трек 11
Имя файла C:\Users\Nornore\Documents\EAC rips\Beethoven-Pollini-CompletePianoSonatas\CompletePianoSonatas03\11. Beethoven‧Piano Sonata No.8 in C minor, Op.13“Pathetique”:I. Grave–Allegro di molto e con brio.wav
Длина предзазора 0:00:08.42
Пиковый уровень 93.6 %
Скорость извлечения 1.6 X
Качество трека 100.0 %
CRC теста A3E2522F
CRC копии A3E2522F
Точное извлечение (достоверность 24) [2B69279E] (AR v2)
Копирование... OK
Трек 12
Имя файла C:\Users\Nornore\Documents\EAC rips\Beethoven-Pollini-CompletePianoSonatas\CompletePianoSonatas03\12. Beethoven‧Piano Sonata No.8 in C minor, Op.13“Pathetique”:II. Adagio cantabile.wav
Пиковый уровень 71.3 %
Скорость извлечения 1.4 X
Качество трека 99.9 %
CRC теста C493879C
CRC копии C493879C
Точное извлечение (достоверность 23) [44F4B780] (AR v2)
Копирование... OK
Трек 13
Имя файла C:\Users\Nornore\Documents\EAC rips\Beethoven-Pollini-CompletePianoSonatas\CompletePianoSonatas03\13. Beethoven‧Piano Sonata No.8 in C minor, Op.13“Pathetique”:III. Rondo. Allegro.wav
Пиковый уровень 97.1 %
Скорость извлечения 1.6 X
Качество трека 100.0 %
CRC теста 73D4100F
CRC копии 73D4100F
Точное извлечение (достоверность 24) [BE456F5C] (AR v2)
Копирование... OK
Все треки извлечены точно
Ошибок не произошло
Конец отчёта
==== Контрольная сумма отчёта 3444121F9D5B256A7D161C5DBAD5542572D1AB2FBD0043E896821585795F746D ====

CD04 ■ Sonatas Op. 26, Op. 27 Nos. 1-2, Op. 28

Exact Audio Copy V1.0 beta 3 from 29. August 2011
Отчёт EAC об извлечении, выполненном 30. декабря 2014, 2:26
Ludwig van Beethoven / Maurizio Pollini / Complete Piano Sonatas, CD04
Дисковод: MATSHITABD-MLT UJ240ES Adapter: 2 ID: 0
Режим чтения : Достоверность
Использование точного потока : Да
Отключение кэша аудио : Да
Использование указателей C2 : Нет
Коррекция смещения при чтении : 103
Способность читать области Lead-in и Lead-out : Нет
Заполнение пропущенных сэмплов тишиной : Да
Удаление блоков с тишиной в начале и конце : Нет
При вычислениях CRC использовались нулевые сэмплы : Да
Интерфейс : Встроенный Win32-интерфейс для Win NT/2000
Обработка зазоров : Добавлено к предыдущему треку
Выходной формат : Пользовательский кодировщик
Выбранный битрейт : 1024 kBit/s
Качество : Высокий
Добавление ID3-тега : Нет
Утилита сжатия : C:\Program Files (x86)\Exact Audio Copy\Flac\flac.exe
Дополнительные параметры : -V -8 -T "Genre=%genre%" -T "Artist=%artist%" -T "Title=%title%" -T "Album=%albumtitle%" -T "Date=%year%" -T "Tracknumber=%tracknr%" -T "Comment=%comment%" %source%
TOC извлечённого CD
Трек | Старт | Длительность | Начальный сектор | Конечный сектор
---------------------------------------------------------------------
1 | 0:00.00 | 7:22.50 | 0 | 33199
2 | 7:22.50 | 2:37.45 | 33200 | 45019
3 | 10:00.20 | 5:48.38 | 45020 | 71157
4 | 15:48.58 | 3:25.29 | 71158 | 86561
5 | 19:14.12 | 4:58.42 | 86562 | 108953
6 | 24:12.54 | 1:54.33 | 108954 | 117536
7 | 26:07.12 | 2:53.42 | 117537 | 130553
8 | 29:00.54 | 5:28.57 | 130554 | 155210
9 | 34:29.36 | 6:20.56 | 155211 | 183766
10 | 40:50.17 | 2:16.00 | 183767 | 193966
11 | 43:06.17 | 7:22.05 | 193967 | 227121
12 | 50:28.22 | 9:34.72 | 227122 | 270243
13 | 60:03.19 | 7:20.73 | 270244 | 303316
14 | 67:24.17 | 2:09.37 | 303317 | 313028
15 | 69:33.54 | 4:37.21 | 313029 | 333824
Трек 1
Имя файла C:\Users\Nornore\Documents\EAC rips\Beethoven-Pollini-CompletePianoSonatas\CompletePianoSonatas04\01. Sonata in A flat major Op. 26 - 1. Andante con Variazioni.wav
Длина предзазора 0:00:02.00
Пиковый уровень 52.0 %
Скорость извлечения 0.8 X
Качество трека 100.0 %
CRC теста 4174506A
CRC копии 4174506A
Точное извлечение (достоверность 2) [24CC9391] (AR v2)
Копирование... OK
Трек 2
Имя файла C:\Users\Nornore\Documents\EAC rips\Beethoven-Pollini-CompletePianoSonatas\CompletePianoSonatas04\02. Sonata in A flat major Op. 26 - 2. Scherzo. Allegro molto.wav
Пиковый уровень 70.9 %
Скорость извлечения 0.8 X
Качество трека 100.0 %
CRC теста A971D6BF
CRC копии A971D6BF
Точное извлечение (достоверность 2) [0D5D3243] (AR v2)
Копирование... OK
Трек 3
Имя файла C:\Users\Nornore\Documents\EAC rips\Beethoven-Pollini-CompletePianoSonatas\CompletePianoSonatas04\03. Sonata in A flat major Op. 26 - 3. Marcia funebre sulla morte d'un Eroe. Maestoso andante.wav
Пиковый уровень 97.4 %
Скорость извлечения 1.0 X
Качество трека 100.0 %
CRC теста 4AE8E01D
CRC копии 4AE8E01D
Точное извлечение (достоверность 2) [D665DD1C] (AR v2)
Копирование... OK
Трек 4
Имя файла C:\Users\Nornore\Documents\EAC rips\Beethoven-Pollini-CompletePianoSonatas\CompletePianoSonatas04\04. Sonata in A flat major Op. 26 - 4. Allegro.wav
Пиковый уровень 83.0 %
Скорость извлечения 1.0 X
Качество трека 100.0 %
CRC теста 6087C0F6
CRC копии 6087C0F6
Точное извлечение (достоверность 2) [C0149E3B] (AR v2)
Копирование... OK
Трек 5
Имя файла C:\Users\Nornore\Documents\EAC rips\Beethoven-Pollini-CompletePianoSonatas\CompletePianoSonatas04\05. Sonata in E flat major Op. 27 No. 1 Sonata quasi una fantasia - 1. Andante - Allegro - Tempo I - attacca-.wav
Длина предзазора 0:00:08.00
Пиковый уровень 65.8 %
Скорость извлечения 1.1 X
Качество трека 100.0 %
CRC теста A12DE152
CRC копии A12DE152
Точное извлечение (достоверность 2) [A2B098E0] (AR v2)
Копирование... OK
Трек 6
Имя файла C:\Users\Nornore\Documents\EAC rips\Beethoven-Pollini-CompletePianoSonatas\CompletePianoSonatas04\06. Sonata in E flat major Op. 27 No. 1 Sonata quasi una fantasia - 2. Allegro molto e vivace - attacca-.wav
Пиковый уровень 74.3 %
Скорость извлечения 1.0 X
Качество трека 100.0 %
CRC теста CD057CCB
CRC копии CD057CCB
Точное извлечение (достоверность 2) [80E92330] (AR v2)
Копирование... OK
Трек 7
Имя файла C:\Users\Nornore\Documents\EAC rips\Beethoven-Pollini-CompletePianoSonatas\CompletePianoSonatas04\07. Sonata in E flat major Op. 27 No. 1 Sonata quasi una fantasia - 3. Adagio con espressione - attacca-.wav
Пиковый уровень 37.9 %
Скорость извлечения 1.1 X
Качество трека 100.0 %
CRC теста 43CE0CE2
CRC копии 43CE0CE2
Точное извлечение (достоверность 2) [5DCDAEE5] (AR v2)
Копирование... OK
Трек 8
Имя файла C:\Users\Nornore\Documents\EAC rips\Beethoven-Pollini-CompletePianoSonatas\CompletePianoSonatas04\08. Sonata in E flat major Op. 27 No. 1 Sonata quasi una fantasia - 4. Allegro vivace.wav
Пиковый уровень 95.3 %
Скорость извлечения 1.3 X
Качество трека 100.0 %
CRC теста BE2896D2
CRC копии BE2896D2
Точное извлечение (достоверность 2) [27B4F253] (AR v2)
Копирование... OK
Трек 9
Имя файла C:\Users\Nornore\Documents\EAC rips\Beethoven-Pollini-CompletePianoSonatas\CompletePianoSonatas04\09. Sonata in C sharp minor Op. 27 No. 2 Sonata quasi una fantasia - 1. Adagio sostenuto - attacca-.wav
Длина предзазора 0:00:09.56
Пиковый уровень 27.3 %
Скорость извлечения 1.4 X
Качество трека 100.0 %
CRC теста DDE0DE46
CRC копии DDE0DE46
Точное извлечение (достоверность 2) [4013CB59] (AR v2)
Копирование... OK
Трек 10
Имя файла C:\Users\Nornore\Documents\EAC rips\Beethoven-Pollini-CompletePianoSonatas\CompletePianoSonatas04\10. Sonata in C sharp minor Op. 27 No. 2 Sonata quasi una fantasia - 2. Allegretto - attacca-.wav
Пиковый уровень 47.6 %
Скорость извлечения 1.2 X
Качество трека 100.0 %
CRC теста 346C1DBB
CRC копии 346C1DBB
Точное извлечение (достоверность 2) [DA906764] (AR v2)
Копирование... OK
Трек 11
Имя файла C:\Users\Nornore\Documents\EAC rips\Beethoven-Pollini-CompletePianoSonatas\CompletePianoSonatas04\11. Sonata in C sharp minor Op. 27 No. 2 Sonata quasi una fantasia - 3. Presto agitato.wav
Пиковый уровень 96.7 %
Скорость извлечения 1.5 X
Качество трека 100.0 %
CRC теста 55EA9A2F
CRC копии 55EA9A2F
Точное извлечение (достоверность 2) [1DDFE1FF] (AR v2)
Копирование... OK
Трек 12
Имя файла C:\Users\Nornore\Documents\EAC rips\Beethoven-Pollini-CompletePianoSonatas\CompletePianoSonatas04\12. Sonata in D major Op. 28 - 1. Allegro.wav
Длина предзазора 0:00:09.53
Пиковый уровень 82.3 %
Скорость извлечения 1.6 X
Качество трека 100.0 %
CRC теста 861CC708
CRC копии 861CC708
Точное извлечение (достоверность 2) [D325789B] (AR v2)
Копирование... OK
Трек 13
Имя файла C:\Users\Nornore\Documents\EAC rips\Beethoven-Pollini-CompletePianoSonatas\CompletePianoSonatas04\13. Sonata in D major Op. 28 - 2. Andante.wav
Пиковый уровень 75.1 %
Скорость извлечения 1.7 X
Качество трека 100.0 %
CRC теста 1D793570
CRC копии 1D793570
Точное извлечение (достоверность 3) [E0F37495] (AR v2)
Копирование... OK
Трек 14
Имя файла C:\Users\Nornore\Documents\EAC rips\Beethoven-Pollini-CompletePianoSonatas\CompletePianoSonatas04\14. Sonata in D major Op. 28 - 3. Scherzo. Allegro vivace.wav
Пиковый уровень 89.6 %
Скорость извлечения 1.2 X
Качество трека 99.9 %
CRC теста 1FF6941D
CRC копии 1FF6941D
Точное извлечение (достоверность 3) [4E4026ED] (AR v2)
Копирование... OK
Трек 15
Имя файла C:\Users\Nornore\Documents\EAC rips\Beethoven-Pollini-CompletePianoSonatas\CompletePianoSonatas04\15. Sonata in D major Op. 28 - 4. Rondo. Allegro, ma non troppo.wav
Пиковый уровень 81.1 %
Скорость извлечения 1.7 X
Качество трека 100.0 %
CRC теста DCCA33E3
CRC копии DCCA33E3
Точное извлечение (достоверность 3) [C867F54B] (AR v2)
Копирование... OK
Все треки извлечены точно
Ошибок не произошло
Конец отчёта
==== Контрольная сумма отчёта 85961416F1D7288308976E23217D04BAFE752E5BAB68361188329C52B795BCB7 ====

CD05 ■ Sonatas Op. 31 Nos. 1-3, Op. 49 Nos. 1-2

Exact Audio Copy V1.0 beta 3 from 29. August 2011
Отчёт EAC об извлечении, выполненном 30. декабря 2014, 4:33
Ludwig van Beethoven / Maurizio Pollini / Complete Piano Sonatas, CD05
Дисковод: MATSHITABD-MLT UJ240ES Adapter: 2 ID: 0
Режим чтения : Достоверность
Использование точного потока : Да
Отключение кэша аудио : Да
Использование указателей C2 : Нет
Коррекция смещения при чтении : 103
Способность читать области Lead-in и Lead-out : Нет
Заполнение пропущенных сэмплов тишиной : Да
Удаление блоков с тишиной в начале и конце : Нет
При вычислениях CRC использовались нулевые сэмплы : Да
Интерфейс : Встроенный Win32-интерфейс для Win NT/2000
Обработка зазоров : Добавлено к предыдущему треку
Выходной формат : Пользовательский кодировщик
Выбранный битрейт : 1024 kBit/s
Качество : Высокий
Добавление ID3-тега : Нет
Утилита сжатия : C:\Program Files (x86)\Exact Audio Copy\Flac\flac.exe
Дополнительные параметры : -V -8 -T "Genre=%genre%" -T "Artist=%artist%" -T "Title=%title%" -T "Album=%albumtitle%" -T "Date=%year%" -T "Tracknumber=%tracknr%" -T "Comment=%comment%" %source%
TOC извлечённого CD
Трек | Старт | Длительность | Начальный сектор | Конечный сектор
---------------------------------------------------------------------
1 | 0:00.00 | 5:51.65 | 0 | 26389
2 | 5:51.65 | 8:52.64 | 26390 | 66353
3 | 14:44.54 | 5:21.19 | 66354 | 90447
4 | 20:05.73 | 7:59.37 | 90448 | 126409
5 | 28:05.35 | 7:12.44 | 126410 | 158853
6 | 35:18.04 | 5:55.62 | 158854 | 185540
7 | 41:13.66 | 7:18.49 | 185541 | 218439
8 | 48:32.40 | 4:41.58 | 218440 | 239572
9 | 53:14.23 | 3:45.10 | 239573 | 256457
10 | 56:59.33 | 4:14.53 | 256458 | 275560
11 | 61:14.11 | 3:56.11 | 275561 | 293271
12 | 65:10.22 | 3:00.30 | 293272 | 306801
13 | 68:10.52 | 4:05.56 | 306802 | 325232
14 | 72:16.33 | 3:03.32 | 325233 | 338989
Трек 1
Имя файла C:\Users\Nornore\Documents\EAC rips\Beethoven-Pollini-CompletePianoSonatas\CompletePianoSonatas05\01. Sonata in G major Op. 31 No. 1 - 1. Allegro vivace.wav
Длина предзазора 0:00:02.00
Пиковый уровень 74.5 %
Скорость извлечения 0.8 X
Качество трека 100.0 %
CRC теста 2CB544E4
CRC копии 2CB544E4
Точное извлечение (достоверность 3) [74E7A586] (AR v2)
Копирование... OK
Трек 2
Имя файла C:\Users\Nornore\Documents\EAC rips\Beethoven-Pollini-CompletePianoSonatas\CompletePianoSonatas05\02. Sonata in G major Op. 31 No. 1 - 2. Adagio grazioso.wav
Пиковый уровень 58.2 %
Скорость извлечения 0.9 X
Качество трека 99.9 %
CRC теста D04B65EF
CRC копии D04B65EF
Точное извлечение (достоверность 3) [EB99BCDE] (AR v2)
Копирование... OK
Трек 3
Имя файла C:\Users\Nornore\Documents\EAC rips\Beethoven-Pollini-CompletePianoSonatas\CompletePianoSonatas05\03. Sonata in G major Op. 31 No. 1 - 3. Rondo. Allegretto.wav
Пиковый уровень 79.4 %
Скорость извлечения 1.1 X
Качество трека 100.0 %
CRC теста BB457EAE
CRC копии BB457EAE
Точное извлечение (достоверность 3) [D6E04469] (AR v2)
Копирование... OK
Трек 4
Имя файла C:\Users\Nornore\Documents\EAC rips\Beethoven-Pollini-CompletePianoSonatas\CompletePianoSonatas05\04. Sonata in D minor Op. 31 No. 2 - 1. Largo - Allegro.wav
Пиковый уровень 81.7 %
Скорость извлечения 1.2 X
Качество трека 100.0 %
CRC теста BD99FBF3
CRC копии BD99FBF3
Точное извлечение (достоверность 3) [A62F74E9] (AR v2)
Копирование... OK
Трек 5
Имя файла C:\Users\Nornore\Documents\EAC rips\Beethoven-Pollini-CompletePianoSonatas\CompletePianoSonatas05\05. Sonata in D minor Op. 31 No. 2 - 2. Adagio.wav
Пиковый уровень 49.4 %
Скорость извлечения 1.2 X
Качество трека 99.9 %
CRC теста 7549E091
CRC копии 7549E091
Точное извлечение (достоверность 3) [468F4AD6] (AR v2)
Копирование... OK
Трек 6
Имя файла C:\Users\Nornore\Documents\EAC rips\Beethoven-Pollini-CompletePianoSonatas\CompletePianoSonatas05\06. Sonata in D minor Op. 31 No. 2 - 3. Allegretto.wav
Пиковый уровень 67.2 %
Скорость извлечения 1.3 X
Качество трека 100.0 %
CRC теста 45123D48
CRC копии 45123D48
Точное извлечение (достоверность 3) [3A1C917A] (AR v2)
Копирование... OK
Трек 7
Имя файла C:\Users\Nornore\Documents\EAC rips\Beethoven-Pollini-CompletePianoSonatas\CompletePianoSonatas05\07. Sonata in E flat major Op. 31 No. 3 - 1. Allegro.wav
Пиковый уровень 64.5 %
Скорость извлечения 1.4 X
Качество трека 100.0 %
CRC теста 31090EC9
CRC копии 31090EC9
Точное извлечение (достоверность 3) [C05F48B2] (AR v2)
Копирование... OK
Трек 8
Имя файла C:\Users\Nornore\Documents\EAC rips\Beethoven-Pollini-CompletePianoSonatas\CompletePianoSonatas05\08. Sonata in E flat major Op. 31 No. 3 - 2. Scherzo. Allegretto vivace.wav
Пиковый уровень 75.4 %
Скорость извлечения 1.4 X
Качество трека 100.0 %
CRC теста 0F4A4A06
CRC копии 0F4A4A06
Точное извлечение (достоверность 3) [C441D296] (AR v2)
Копирование... OK
Трек 9
Имя файла C:\Users\Nornore\Documents\EAC rips\Beethoven-Pollini-CompletePianoSonatas\CompletePianoSonatas05\09. Sonata in E flat major Op. 31 No. 3 - 3. Menuetto. Moderato e grazioso.wav
Пиковый уровень 66.1 %
Скорость извлечения 1.4 X
Качество трека 100.0 %
CRC теста D7E8EC00
CRC копии D7E8EC00
Точное извлечение (достоверность 3) [79B52845] (AR v2)
Копирование... OK
Трек 10
Имя файла C:\Users\Nornore\Documents\EAC rips\Beethoven-Pollini-CompletePianoSonatas\CompletePianoSonatas05\10. Sonata in E flat major Op. 31 No. 3 - 4. Presto con fuoco.wav
Пиковый уровень 84.7 %
Скорость извлечения 1.5 X
Качество трека 100.0 %
CRC теста FE32F324
CRC копии FE32F324
Точное извлечение (достоверность 3) [5CED617A] (AR v2)
Копирование... OK
Трек 11
Имя файла C:\Users\Nornore\Documents\EAC rips\Beethoven-Pollini-CompletePianoSonatas\CompletePianoSonatas05\11. Sonata in G minor Op. 49 No. 1 - 1. Andante.wav
Пиковый уровень 43.6 %
Скорость извлечения 1.5 X
Качество трека 100.0 %
CRC теста 669F8BAD
CRC копии 669F8BAD
Точное извлечение (достоверность 3) [3E57480B] (AR v2)
Копирование... OK
Трек 12
Имя файла C:\Users\Nornore\Documents\EAC rips\Beethoven-Pollini-CompletePianoSonatas\CompletePianoSonatas05\12. Sonata in G minor Op. 49 No. 1 - 2. Rondo. Allegro.wav
Пиковый уровень 55.0 %
Скорость извлечения 1.5 X
Качество трека 100.0 %
CRC теста 1B4415B1
CRC копии 1B4415B1
Точное извлечение (достоверность 3) [1A77E20E] (AR v2)
Копирование... OK
Трек 13
Имя файла C:\Users\Nornore\Documents\EAC rips\Beethoven-Pollini-CompletePianoSonatas\CompletePianoSonatas05\13. Sonata in G major Op. 49 No. 2 - 1. Allegro, ma non troppo.wav
Пиковый уровень 60.7 %
Скорость извлечения 1.6 X
Качество трека 100.0 %
CRC теста 62EE1F68
CRC копии 62EE1F68
Точное извлечение (достоверность 3) [59DC34E6] (AR v2)
Копирование... OK
Трек 14
Имя файла C:\Users\Nornore\Documents\EAC rips\Beethoven-Pollini-CompletePianoSonatas\CompletePianoSonatas05\14. Sonata in G major Op. 49 No. 2 - 2. Tempo di Menuetto.wav
Пиковый уровень 46.9 %
Скорость извлечения 1.6 X
Качество трека 100.0 %
CRC теста 3227774C
CRC копии 3227774C
Точное извлечение (достоверность 3) [2ADBD762] (AR v2)
Копирование... OK
Все треки извлечены точно
Ошибок не произошло
Конец отчёта
==== Контрольная сумма отчёта FD573804937D1D3401452D8810F4458C2F377E745A91C1582785DFDBCA5B584B ====

CD06 ■ Sonatas Opp. 53, 54, 57, 78, 79

Exact Audio Copy V1.0 beta 3 from 29. August 2011
Отчёт EAC об извлечении, выполненном 30. декабря 2014, 6:48
Ludwig van Beethoven / Maurizio Pollini / Complete Piano Sonatas, CD 06
Дисковод: MATSHITABD-MLT UJ240ES Adapter: 2 ID: 0
Режим чтения : Достоверность
Использование точного потока : Да
Отключение кэша аудио : Да
Использование указателей C2 : Нет
Коррекция смещения при чтении : 103
Способность читать области Lead-in и Lead-out : Нет
Заполнение пропущенных сэмплов тишиной : Да
Удаление блоков с тишиной в начале и конце : Нет
При вычислениях CRC использовались нулевые сэмплы : Да
Интерфейс : Встроенный Win32-интерфейс для Win NT/2000
Обработка зазоров : Добавлено к предыдущему треку
Выходной формат : Пользовательский кодировщик
Выбранный битрейт : 1024 kBit/s
Качество : Высокий
Добавление ID3-тега : Нет
Утилита сжатия : C:\Program Files (x86)\Exact Audio Copy\Flac\flac.exe
Дополнительные параметры : -V -8 -T "Genre=%genre%" -T "Artist=%artist%" -T "Title=%title%" -T "Album=%albumtitle%" -T "Date=%year%" -T "Tracknumber=%tracknr%" -T "Comment=%comment%" %source%
TOC извлечённого CD
Трек | Старт | Длительность | Начальный сектор | Конечный сектор
---------------------------------------------------------------------
1 | 0:00.00 | 10:00.33 | 0 | 45032
2 | 10:00.33 | 3:53.29 | 45033 | 62536
3 | 13:53.62 | 9:59.48 | 62537 | 107509
4 | 23:53.35 | 5:04.08 | 107510 | 130317
5 | 28:57.43 | 5:37.06 | 130318 | 155598
6 | 34:34.49 | 9:20.73 | 155599 | 197671
7 | 43:55.47 | 5:59.61 | 197672 | 224657
8 | 49:55.33 | 8:06.17 | 224658 | 261124
9 | 58:01.50 | 7:02.56 | 261125 | 292830
10 | 65:04.31 | 2:59.06 | 292831 | 306261
11 | 68:03.37 | 4:08.68 | 306262 | 324929
12 | 72:12.30 | 3:19.49 | 324930 | 339903
13 | 75:32.04 | 1:44.71 | 339904 | 347774
Трек 1
Имя файла C:\Users\Nornore\Documents\EAC rips\Beethoven-Pollini-CompletePianoSonatas\CompletePianoSonatas06\01. Sonata in C major Op. 53 ''Waldstein'' - 1. Allegro con brio.wav
Длина предзазора 0:00:02.00
Пиковый уровень 94.4 %
Скорость извлечения 0.9 X
Качество трека 100.0 %
CRC теста F288C33F
CRC копии F288C33F
Точное извлечение (достоверность 3) [6E0DCD4D] (AR v2)
Копирование... OK
Трек 2
Имя файла C:\Users\Nornore\Documents\EAC rips\Beethoven-Pollini-CompletePianoSonatas\CompletePianoSonatas06\02. Sonata in C major Op. 53 ''Waldstein'' - 2. Introduzione. Adagio molto - attacca-.wav
Пиковый уровень 42.6 %
Скорость извлечения 0.8 X
Качество трека 99.9 %
CRC теста A55F4AC5
CRC копии A55F4AC5
Точное извлечение (достоверность 3) [66AA91DA] (AR v2)
Копирование... OK
Трек 3
Имя файла C:\Users\Nornore\Documents\EAC rips\Beethoven-Pollini-CompletePianoSonatas\CompletePianoSonatas06\03. Sonata in C major Op. 53 ''Waldstein'' - 3. Rondo. Allegretto moderato - Prestissimo.wav
Пиковый уровень 98.0 %
Скорость извлечения 1.1 X
Качество трека 100.0 %
CRC теста DBAAEDAA
CRC копии DBAAEDAA
Точное извлечение (достоверность 3) [7421E811] (AR v2)
Копирование... OK
Трек 4
Имя файла C:\Users\Nornore\Documents\EAC rips\Beethoven-Pollini-CompletePianoSonatas\CompletePianoSonatas06\04. Sonata in F major Op. 54 - 1. In tempo d'un Menuetto.wav
Длина предзазора 0:00:08.00
Пиковый уровень 96.7 %
Скорость извлечения 1.1 X
Качество трека 99.9 %
CRC теста DAD6987F
CRC копии DAD6987F
Точное извлечение (достоверность 3) [95B4C9AC] (AR v2)
Копирование... OK
Трек 5
Имя файла C:\Users\Nornore\Documents\EAC rips\Beethoven-Pollini-CompletePianoSonatas\CompletePianoSonatas06\05. Sonata in F major Op. 54 - 2. Allegretto.wav
Пиковый уровень 90.0 %
Скорость извлечения 1.3 X
Качество трека 100.0 %
CRC теста 0E7166D7
CRC копии 0E7166D7
Точное извлечение (достоверность 3) [347CF7E3] (AR v2)
Копирование... OK
Трек 6
Имя файла C:\Users\Nornore\Documents\EAC rips\Beethoven-Pollini-CompletePianoSonatas\CompletePianoSonatas06\06. Sonata in F minor Op. 57 - 1. Allegro assai.wav
Длина предзазора 0:00:05.00
Пиковый уровень 97.5 %
Скорость извлечения 1.4 X
Качество трека 100.0 %
CRC теста 907D33D3
CRC копии 907D33D3
Точное извлечение (достоверность 3) [AA249168] (AR v2)
Копирование... OK



Показать сообщения:    

Текущее время: 07-Дек 23:20

Часовой пояс: UTC + 3


Вы не можете начинать темы
Вы не можете отвечать на сообщения
Вы не можете редактировать свои сообщения
Вы не можете удалять свои сообщения
Вы не можете голосовать в опросах
Вы не можете прикреплять файлы к сообщениям
Вы не можете скачивать файлы