(Classical) Georg Böhm (Bohm) - Organ Works of the North German Baroque VIII (2CD) - Friedhelm Flamme - 2011, FLAC (image+.cue) lossless


 

[Цитировать]

Georg Böhm- -Жанр: Classical || Страна-производитель диска: Germany || Издатель (лейбл): Classic Produktion Osnabrück
Каталог №: cpo 777 501-2 || Дата записи: 2009-04-14,15 || Год издания: 2011 || Кодек: FLAC (*.flac) || Битрейт: lossless
Тип рипа: image+.cue || Продолжительность: 02:21:21 || Источник (релизер): Original CD's || Наличие сканов в содержимом раздачи: да
-Organ Works of the North German Baroque VIII:
-
-

2011 - Organ Works of the North German Baroque VIII: CD1

1 Praeludium C-Dur 04:56
2 Ach wie nichtig, ach wie flüchtig 05:37
3 Allein Gott in der Höh sei Ehr 03:05
4 Auf meinen lieben Gott 08:40
5 Aus tiefer Not schrei ich zu dir 04:52
6 Christe, der du bist Tag und Licht 08:18
7 Christ lag in Todesbanden 03:59
8 Christ lag in Todesbanden 05:32
9 Christum wir sollen loben schon 02:12
10 Erhalt uns, Herr, bei deinem Wort 03:09
11 Capriccio D-Dur 06:00
12 Praeludium g-Moll 07:56
13 Praeludium G-Dur 00:54
14 Praeludium F-Dur 01:57
15 Menuet G-Dur 01:36-Продолжительность: 01:08:41-

Лог создания рипа

Exact Audio Copy V1.0 beta 3 from 29. August 2011
EAC extraction logfile from 5. December 2014, 16:58
Friedhelm Flamme / Organ Works of the North German Baroque VIII: CD1
Used drive : ASUS DRW-22B2L b Adapter: 3 ID: 5
Read mode : SecureUtilize accurate stream : YesDefeat audio cache : YesMake use of C2 pointers : No
Read offset correction : 6Overread into Lead-In and Lead-Out : NoFill up missing offset samples with silence : YesDelete leading and trailing silent blocks : NoNull samples used in CRC calculations : YesUsed interface : Native Win32 interface for Win NT & 2000
Used output format : User Defined EncoderSelected bitrate : 128 kBit/sQuality : HighAdd ID3 tag : NoCommand line compressor : C:\Program Files\Exact Audio Copy\Flac\flac.exeAdditional command line options : -V -8 -T "Date=%year%" -T "Genre=%genre%" -T "Composer=%composer%" %source%
TOC of the extracted CD
Track | Start | Length | Start sector | End sector --------------------------------------------------------- 1 | 0:00.00 | 4:55.44 | 0 | 22168 2 | 4:55.44 | 5:36.47 | 22169 | 47415 3 | 10:32.16 | 3:05.17 | 47416 | 61307 4 | 13:37.33 | 8:39.48 | 61308 | 100280 5 | 22:17.06 | 4:51.62 | 100281 | 122167 6 | 27:08.68 | 8:17.72 | 122168 | 159514 7 | 35:26.65 | 3:58.66 | 159515 | 177430 8 | 39:25.56 | 5:31.49 | 177431 | 202304 9 | 44:57.30 | 2:12.21 | 202305 | 212225 10 | 47:09.51 | 3:09.27 | 212226 | 226427 11 | 50:19.03 | 5:59.51 | 226428 | 253403 12 | 56:18.54 | 7:55.47 | 253404 | 289075 13 | 64:14.26 | 0:53.60 | 289076 | 293110 14 | 65:08.11 | 1:56.66 | 293111 | 301876 15 | 67:05.02 | 1:36.23 | 301877 | 309099
Range status and errors
Selected range
Filename C:\1st0m1n\!!! Dedykuję Najpiękniejszej Polce na Całym Bezbrzeżnym Świecie !!!\Friedhelm Flamme - Organ Works of the North German Baroque VIII- CD1.wav
Peak level 92.9 % Extraction speed 8.0 X Range quality 99.9 % Test CRC DCE611EA Copy CRC DCE611EA Copy OK
No errors occurred
AccurateRip summary
Track 1 accurately ripped (confidence 5) [2A711827] (AR v2)Track 2 accurately ripped (confidence 5) [18D7C984] (AR v2)Track 3 accurately ripped (confidence 5) [94944869] (AR v2)Track 4 accurately ripped (confidence 4) [B3CFE813] (AR v2)Track 5 accurately ripped (confidence 4) [5CD83B98] (AR v2)Track 6 accurately ripped (confidence 5) [708055F1] (AR v2)Track 7 accurately ripped (confidence 5) [4D3A9A00] (AR v2)Track 8 accurately ripped (confidence 5) [CB30F55B] (AR v2)Track 9 accurately ripped (confidence 5) [E5311220] (AR v2)Track 10 accurately ripped (confidence 5) [559E3657] (AR v2)Track 11 accurately ripped (confidence 5) [CB268564] (AR v2)Track 12 accurately ripped (confidence 5) [50C5042D] (AR v2)Track 13 accurately ripped (confidence 5) [4B4A7FE6] (AR v2)Track 14 accurately ripped (confidence 5) [4E7E3F3F] (AR v2)Track 15 accurately ripped (confidence 5) [AC731077] (AR v2)
All tracks accurately ripped
End of status report
---- CUETools DB Plugin V2.1.5
[CTDB TOCID: N7XC2FeW9TyB.mMvdhHBDpHswbA-] foundSubmit result: N7XC2FeW9TyB.mMvdhHBDpHswbA- has been confirmedTrack | CTDB Status 1 | (1/1) Accurately ripped 2 | (1/1) Accurately ripped 3 | (1/1) Accurately ripped 4 | (1/1) Accurately ripped 5 | (1/1) Accurately ripped 6 | (1/1) Accurately ripped 7 | (1/1) Accurately ripped 8 | (1/1) Accurately ripped 9 | (1/1) Accurately ripped 10 | (1/1) Accurately ripped 11 | (1/1) Accurately ripped 12 | (1/1) Accurately ripped 13 | (1/1) Accurately ripped 14 | (1/1) Accurately ripped 15 | (1/1) Accurately ripped
==== Log checksum F503224307955C57C016F321A9305F1F7DA84F0D876E95AF0D0AF943FBE29E9F ====

-

2011 - Organ Works of the North German Baroque VIII: CD2

1 Praeludium d-Moll 06:03
2 Freu dich sehr, o meine Seele 15:51
3 Gelobet seist du, Jesu Christ 03:11
4 Gelobet seist du, Jesu Christ 04:33
5 Herr Jesu Christ, dich zu uns wend 08:56
6 Jesu, du bist allzu schöne 06:58
7 Nun bitten wir den Heiligen Geist 03:18
8 Vater unser im Himmelreich 05:01
9 Vater unser im Himmelreich 01:45
10 Vater unser im Himmelreich 04:44
11 Vom Himmel hoch, da komm ich her 01:44
12 Wer nur den lieben Gott läßt walten 06:52
13 Praeludium a-Moll 03:42-Продолжительность: 01:12:39-

Лог создания рипа

Exact Audio Copy V1.0 beta 3 from 29. August 2011
EAC extraction logfile from 5. December 2014, 17:44
Friedhelm Flamme / Organ Works of the North German Baroque VIII: CD2
Used drive : ASUS DRW-22B2L b Adapter: 3 ID: 5
Read mode : SecureUtilize accurate stream : YesDefeat audio cache : YesMake use of C2 pointers : No
Read offset correction : 6Overread into Lead-In and Lead-Out : NoFill up missing offset samples with silence : YesDelete leading and trailing silent blocks : NoNull samples used in CRC calculations : YesUsed interface : Native Win32 interface for Win NT & 2000
Used output format : User Defined EncoderSelected bitrate : 128 kBit/sQuality : HighAdd ID3 tag : NoCommand line compressor : C:\Program Files\Exact Audio Copy\Flac\flac.exeAdditional command line options : -V -8 -T "Date=%year%" -T "Genre=%genre%" -T "Composer=%composer%" %source%
TOC of the extracted CD
Track | Start | Length | Start sector | End sector --------------------------------------------------------- 1 | 0:00.00 | 6:03.20 | 0 | 27244 2 | 6:03.20 | 15:51.03 | 27245 | 98572 3 | 21:54.23 | 3:10.58 | 98573 | 112880 4 | 25:05.06 | 4:32.48 | 112881 | 133328 5 | 29:37.54 | 8:56.21 | 133329 | 173549 6 | 38:34.00 | 6:58.28 | 173550 | 204927 7 | 45:32.28 | 3:18.27 | 204928 | 219804 8 | 48:50.55 | 5:01.04 | 219805 | 242383 9 | 53:51.59 | 1:44.73 | 242384 | 250256 10 | 55:36.57 | 4:43.57 | 250257 | 271538 11 | 60:20.39 | 1:44.06 | 271539 | 279344 12 | 62:04.45 | 6:52.36 | 279345 | 310280 13 | 68:57.06 | 3:42.00 | 310281 | 326930
Range status and errors
Selected range
Filename C:\1st0m1n\!!! Dedykuję Najpiękniejszej Polce na Całym Bezbrzeżnym Świecie !!!\Friedhelm Flamme - Organ Works of the North German Baroque VIII- CD2.wav
Peak level 87.6 % Extraction speed 9.2 X Range quality 100.0 % Test CRC B4DCB509 Copy CRC B4DCB509 Copy OK
No errors occurred
AccurateRip summary
Track 1 accurately ripped (confidence 5) [28B3D569] (AR v2)Track 2 accurately ripped (confidence 5) [DE0609EF] (AR v2)Track 3 accurately ripped (confidence 5) [867A8F69] (AR v2)Track 4 accurately ripped (confidence 5) [8B3D2509] (AR v2)Track 5 accurately ripped (confidence 5) [5BD70B0A] (AR v2)Track 6 accurately ripped (confidence 5) [47EF1C37] (AR v2)Track 7 accurately ripped (confidence 5) [CC2A8529] (AR v2)Track 8 accurately ripped (confidence 5) [D863AD68] (AR v2)Track 9 accurately ripped (confidence 5) [35D0BE76] (AR v2)Track 10 accurately ripped (confidence 5) [4A284C86] (AR v2)Track 11 accurately ripped (confidence 5) [CA598165] (AR v2)Track 12 accurately ripped (confidence 5) [C1A3CFA1] (AR v2)Track 13 accurately ripped (confidence 4) [56B7D3A1] (AR v2)
All tracks accurately ripped
End of status report
---- CUETools DB Plugin V2.1.5
[CTDB TOCID: W3XIB_yR7Ky8UuL86yBW2NWRgIU-] foundSubmit result: W3XIB_yR7Ky8UuL86yBW2NWRgIU- has been confirmedTrack | CTDB Status 1 | (1/1) Accurately ripped 2 | (1/1) Accurately ripped 3 | (1/1) Accurately ripped 4 | (1/1) Accurately ripped 5 | (1/1) Accurately ripped 6 | (1/1) Accurately ripped 7 | (1/1) Accurately ripped 8 | (1/1) Accurately ripped 9 | (1/1) Accurately ripped 10 | (1/1) Accurately ripped 11 | (1/1) Accurately ripped 12 | (1/1) Accurately ripped 13 | (1/1) Accurately ripped
==== Log checksum 6B40B41F1BF2606A0DD1C04881F576A16082DE8B41EFF32BAD34BEAC2B841AE2 ====

-

Исполнитель

Friedhelm Flamme.
Instrument:
Johannes Creutzburg-Orgel, Propsteikirche St. Cyriakus, Duderstadt (Deutschland).
-



Показать сообщения:    

Текущее время: 04-Дек 13:15

Часовой пояс: UTC + 3


Вы не можете начинать темы
Вы не можете отвечать на сообщения
Вы не можете редактировать свои сообщения
Вы не можете удалять свои сообщения
Вы не можете голосовать в опросах
Вы не можете прикреплять файлы к сообщениям
Вы не можете скачивать файлы