(Classical) Johann Sebastian Bach - Toccatas and Fugues BWV565,538;Fantasia and Fugue BWV542; Chorale Preludes BWV 645,650; Organ Concertos №2,4 (Karl Richter) - 2010, FLAC (image+.cue) lossless


 

[Цитировать]

Johann Sebastian Bach -
Toccatas and Fugues BWV565,538;Fantasia and Fugue BWV542; Chorale Preludes BWV 645,650; Organ Concertos №2,4
(Karl Richter)
Johann Sebastian Bach (1685-1750) Жанр: Classical
Страна-производитель диска: Germany
Год издания диска: 2010
Издатель (лейбл): Deutsche Grammophon GmbH
Номер по каталогу: 469 616-2
Дата записи: (1,2)1964 / (6,7)1967/ (3,8-10) 1974 / (4,5) 1980
Аудиокодек: FLAC
Тип рипа: image+.cue
Битрейт аудио: lossless
Продолжительность: 01:05:25
Источник: JVA
Наличие сканов в содержимом раздачи: да
Треклист:
01. Toccata und Fuge d-moll BWV565 (08:52)
02. Fantasie und Fuge g-moll BWV542 (12:33)
03. Orgelkonzert Nr.4 C-dur BWV595 (04:04)
Toccata und Fuge d-moll BWV538 "Dorische"
04. Toccata (06:20)
05. Fuge (09:19)
Choralvorspiel
06. Wachet auf, ruft uns die Stimme, BWV645 (05:53)
07. Kommst du nun, Jesus, vom Himmel herunter, BWV650 (03:37)
Orgelkonzert Nr.2 a-moll, BWV593
08. I. (ohne Satzbezeichnung) (04:12)
09. II. Adagio (03:20)
10. III. Allegro (04:10)
Исполнители:
Karl Richter, organ

Лог создания рипа

xact Audio Copy V0.99 prebeta 5 from 4. May 2009
Отчёт EAC об извлечении, выполненном 21. ноября 2014, 11:07
Johann Sebastian Bach / Toccata & Fugue
Дисковод: ATAPI iHAS124 E Adapter: 0 ID: 0
Режим чтения : ДостоверностьИспользование точного потока : ДаОтключение кэша аудио : ДаИспользование указателей C2 : Нет
Коррекция смещения при чтении : 6Способность читать области Lead-in и Lead-out : НетЗаполнение пропущенных сэмплов тишиной : ДаУдаление блоков с тишиной в начале и конце : НетПри вычислениях CRC использовались нулевые сэмплы : ДаИнтерфейс : Встроенный Win32-интерфейс для Win NT/2000
Выходной формат : Пользовательский кодировщикВыбранный битрейт : 768 kBit/sКачество : ВысокийДобавление ID3-тэга : НетУтилита сжатия : C:\Program Files\Exact Audio Copy\Flac\flac.exeДополнительные параметры : -6 -V -T "ARTIST=%a" -T "TITLE=%t" -T "ALBUM=%g" -T "DATE=%y" -T "TRACKNUMBER=%n" -T "GENRE=%m" -T "COMMENT=%e" %s -o %d
TOC извлечённого CD
Трек | Старт | Длительность | Начальный сектор | Конечный сектор --------------------------------------------------------------------- 1 | 0:00.00 | 8:52.13 | 0 | 39912 2 | 8:52.13 | 12:33.70 | 39913 | 96457 3 | 21:26.08 | 4:04.02 | 96458 | 114759 4 | 25:30.10 | 6:20.61 | 114760 | 143320 5 | 31:50.71 | 9:19.09 | 143321 | 185254 6 | 41:10.05 | 5:53.31 | 185255 | 211760 7 | 47:03.36 | 3:37.55 | 211761 | 228090 8 | 50:41.16 | 4:12.61 | 228091 | 247051 9 | 54:54.02 | 3:20.53 | 247052 | 262104 10 | 58:14.55 | 4:10.38 | 262105 | 280892
Характеристики диапазона извлечения и сообщения об ошибках
Выбранный диапазон
Имя файла C:\EAC\Johann Sebastian Bach - Toccata & Fugue\J.S.Bach - Toccata & Fugue.wav
Пиковый уровень 99.9 % Качество диапазона 100.0 % CRC копии 3851CAA8 Копирование... OK
Ошибок не произошло
AccurateRip: сводка
Трек 1 точное извлечение (доверие 6) [F3B2F6B8]Трек 2 точное извлечение (доверие 6) [45337BA1]Трек 3 точное извлечение (доверие 6) [FDA13063]Трек 4 точное извлечение (доверие 6) [596305A2]Трек 5 точное извлечение (доверие 6) [111067D6]Трек 6 точное извлечение (доверие 6) [92C54D28]Трек 7 точное извлечение (доверие 6) [1BEA323F]Трек 8 точное извлечение (доверие 6) [21FBFB6B]Трек 9 точное извлечение (доверие 5) [9F9E7A87]Трек 10 точное извлечение (доверие 5) [77453224]
Все треки извлечены точно
Конец отчёта

Лог проверки качества

Скриншот спектра частот




Показать сообщения:    

Текущее время: 11-Дек 09:10

Часовой пояс: UTC + 3


Вы не можете начинать темы
Вы не можете отвечать на сообщения
Вы не можете редактировать свои сообщения
Вы не можете удалять свои сообщения
Вы не можете голосовать в опросах
Вы не можете прикреплять файлы к сообщениям
Вы не можете скачивать файлы