(Classical) Гуммель – Фантазии для фортепиано / Hummel ­– Piano fantasies (Madoka Inui) - 2005, FLAC (image+.cue) lossless


 

[Цитировать]

Гуммель – Фантазии для фортепиано / Hummel ­– Piano fantasies (Madoka Inui)
Жанр: Classical
Страна-производитель диска: ЕС
Год издания диска: 2005
Издатель (лейбл): Naxos
Номер по каталогу: 8.557836
Дата записи: 26 — 28 июля 2005 г., Вена.
Аудиокодек: FLAC
Тип рипа: image+.cue
Битрейт аудио: lossless
Продолжительность: 01:08:38
Источник: odeonmusic
Наличие сканов в содержимом раздачи: да
Треклист:
Иоганн Непомук Гуммель (1778 — 1837).
Фантазия для фортепиано [№ 6] g-moll на темы [песен] Сигизмунда фон Нейкома [на слова Барри Корнуолла] и собственную, op. 123 (опубл. 1833?).
01. Вступление [на собственную тему]. — [01:12].
02. — «Песня охотника» (The Hunter's Song). — [02:21].
03. — Марш [на собственную тему]. — [02:56].
04. — «Бладхаунд» (The Bloodhound). — [02:45].
05. — «Странствующие матросы» (The Roaming Mariners) [03:03].
Фантазия для фортепиано [№ 2] Es-dur, op. 18 (опубл. 1805).
06. Lento. — Andante. — Allegro con fuoco. — A capriccio, ma lento. — [08:06].
07. — Larghetto e cantabile. — [08:37].
08. — Allegro assai. — [04:26].
09. — Presto [02:14].
Рондо-фантазия (Rondo quasi una fantasia) для фортепиано [№ 3] E-dur, op. 19 (ок. 1806).
10. Larghetto. — Allegro con spirito [08:24].
Шесть багателей для фортепиано, op. 107 (1824?; опубл. 1826?).
№ 3 As-dur. «Размышление» (La Contemplazione), маленькая фантазия [№ 4].
11. Larghetto [09:01].
«Воспоминания о Паганини» (Recollections of Paganini), фантазия для фортепиано [№ 5] C-dur, WoO 8, S. 190 (1831?).
12. Andante maestoso. — Каприс [№ 11]. — Allegretto vivo. — [Каприс № 9.] — [03:23].
13. — [Менуэт из гитарного] квартета [№ 7]. Allegretto. — [Каприсъ № 11.] Andante cantabile. — [03:05].
14. — Рондо [из Концерта № 1.] Allegro. — [01:40].
15. — Кампанелла [из Концерта № 2]. Allegretto vivo [01:40].
Маленькая фантазия (Fantasina) для фортепиано [№ 7] C-dur на тему «Non più andrai» из «Женитьбы Фигаро» Моцарта, op. 124 (опубл. 1834).
16. Andante maestoso ma non troppo lento. — Allegro moderato. — Allegretto gioioso e scherzante. — Molto vivace [05:44].-Исполнитель:
Madoka Inui (фортепиано).

Лог создания рипа

Exact Audio Copy V1.0 beta 3 from 29. August 2011
EAC extraction logfile from 21. August 2013, 17:27
Madoka Inui / Hummel - Fantasies - Madoka Inui
Used drive : TSSTcorpCDDVDW SH-222BB Adapter: 2 ID: 1
Read mode : SecureUtilize accurate stream : YesDefeat audio cache : YesMake use of C2 pointers : No
Read offset correction : 6Overread into Lead-In and Lead-Out : NoFill up missing offset samples with silence : YesDelete leading and trailing silent blocks : NoNull samples used in CRC calculations : YesUsed interface : Native Win32 interface for Win NT & 2000
Used output format : User Defined EncoderSelected bitrate : 1024 kBit/sQuality : HighAdd ID3 tag : NoCommand line compressor : C:\Program Files\Exact Audio Copy\Flac\flac.exeAdditional command line options : -8 -V -T "TITLE=%title%" -T "ARTIST=%artist%" -T "ALBUMARTIST=%albumartist%" -T "ALBUM=%albumtitle%" -T "DATE=%year%" -T "TRACKNUMBER=%tracknr%" -T "TRACKTOTAL=%numtracks%" -T "GENRE=%genre%" -T "COMMENT=%comment%" -T "PERFORMER=%albuminterpret%" -T "COMPOSER=%composer%" %source% -o %dest%
TOC of the extracted CD
Track | Start | Length | Start sector | End sector --------------------------------------------------------- 1 | 0:00.00 | 1:09.40 | 0 | 5214 2 | 1:09.40 | 2:20.63 | 5215 | 15777 3 | 3:30.28 | 2:55.61 | 15778 | 28963 4 | 6:26.14 | 2:45.29 | 28964 | 41367 5 | 9:11.43 | 3:04.56 | 41368 | 55223 6 | 12:16.24 | 8:04.30 | 55224 | 91553 7 | 20:20.54 | 8:37.03 | 91554 | 130331 8 | 28:57.57 | 4:26.15 | 130332 | 150296 9 | 33:23.72 | 2:15.37 | 150297 | 160458 10 | 35:39.34 | 8:22.69 | 160459 | 198177 11 | 44:02.28 | 9:03.53 | 198178 | 238955 12 | 53:06.06 | 3:20.02 | 238956 | 253957 13 | 56:26.08 | 3:05.02 | 253958 | 267834 14 | 59:31.10 | 1:40.11 | 267835 | 275345 15 | 61:11.21 | 1:41.13 | 275346 | 282933 16 | 62:52.34 | 5:43.17 | 282934 | 308675
Range status and errors
Selected range
Filename G:\Ripped general\[8549] Hummel – Fantasies – Madoka Inui\Hummel - Fantasies - Madoka Inui.wav
Peak level 95.7 % Extraction speed 7.8 X Range quality 100.0 % Test CRC C6A04133 Copy CRC C6A04133 Copy OK
No errors occurred
AccurateRip summary
Track 1 accurately ripped (confidence 2) [648B9824] (AR v1)Track 2 accurately ripped (confidence 2) [0B536F4A] (AR v1)Track 3 accurately ripped (confidence 2) [46F1F57C] (AR v1)Track 4 accurately ripped (confidence 2) [49F8C46B] (AR v1)Track 5 accurately ripped (confidence 2) [95C02C8D] (AR v1)Track 6 accurately ripped (confidence 2) [8CD7C929] (AR v1)Track 7 accurately ripped (confidence 2) [DC2639D8] (AR v1)Track 8 accurately ripped (confidence 2) [9DC4E51B] (AR v1)Track 9 accurately ripped (confidence 2) [F794E663] (AR v1)Track 10 accurately ripped (confidence 2) [C9F2DF4D] (AR v1)Track 11 accurately ripped (confidence 2) [E32FCD0F] (AR v1)Track 12 accurately ripped (confidence 2) [3560F657] (AR v1)Track 13 accurately ripped (confidence 2) [0A818F03] (AR v1)Track 14 accurately ripped (confidence 2) [75F9FEE0] (AR v1)Track 15 accurately ripped (confidence 2) [F9B307B9] (AR v1)Track 16 accurately ripped (confidence 2) [9299AFD5] (AR v1)
All tracks accurately ripped
End of status report

Содержание индексной карты (.CUE)

REM GENRE ClassicalREM DATE 2005REM DISCID DF101310REM COMMENT "ExactAudioCopy v1.0b3"PERFORMER "Madoka Inui"TITLE "Hummel – Fantasies – Madoka Inui"FILE "Hummel – Fantasies – Madoka Inui.flac" WAVE TRACK 01 AUDIO TITLE "Fantasia in G minor, Op. 123 - Introduzione -" PERFORMER "Madoka Inui" FLAGS DCP INDEX 01 00:00:00 TRACK 02 AUDIO TITLE "Fantasia in G minor, Op. 123 - The Hunter's Song -" PERFORMER "Madoka Inui" FLAGS DCP INDEX 01 01:09:40 TRACK 03 AUDIO TITLE "Fantasia in G minor, Op. 123 - March -" PERFORMER "Madoka Inui" FLAGS DCP INDEX 01 03:30:28 TRACK 04 AUDIO TITLE "Fantasia in G minor, Op. 123 - The Bloodhound -" PERFORMER "Madoka Inui" FLAGS DCP INDEX 01 06:26:14 TRACK 05 AUDIO TITLE "Fantasia in G minor, Op. 123 - The Roaming Mariners" PERFORMER "Madoka Inui" FLAGS DCP INDEX 01 09:11:43 TRACK 06 AUDIO TITLE "Fantasia in E flat major, Op. 18 - Lento - Allegro con fuoco -" PERFORMER "Madoka Inui" FLAGS DCP INDEX 00 12:14:20 INDEX 01 12:16:24 TRACK 07 AUDIO TITLE "Fantasia in E flat major, Op. 18 - Larghetto e cantabile -" PERFORMER "Madoka Inui" FLAGS DCP INDEX 01 20:20:54 TRACK 08 AUDIO TITLE "Fantasia in E flat major, Op. 18 - Allegro assai -" PERFORMER "Madoka Inui" FLAGS DCP INDEX 01 28:57:57 TRACK 09 AUDIO TITLE "Fantasia in E flat major, Op. 18 - Presto" PERFORMER "Madoka Inui" FLAGS DCP INDEX 01 33:23:72 TRACK 10 AUDIO TITLE "Rondo quasi una fantasia in E major, Op. 19" PERFORMER "Madoka Inui" FLAGS DCP INDEX 00 35:38:10 INDEX 01 35:39:34 TRACK 11 AUDIO TITLE "Six Bagatelles, Op. 107 - No. 3 in A flat major 'La Contemplazione'" PERFORMER "Madoka Inui" FLAGS DCP INDEX 00 44:01:67 INDEX 01 44:02:28 TRACK 12 AUDIO TITLE "'Recollections of Paganini' in C major, WoO 8, S. 190 - Caprice -" PERFORMER "Madoka Inui" FLAGS DCP INDEX 00 53:02:61 INDEX 01 53:06:06 TRACK 13 AUDIO TITLE "'Recollections of Paganini' in C major, WoO 8, S. 190 - Quartet -" PERFORMER "Madoka Inui" FLAGS DCP INDEX 01 56:26:08 TRACK 14 AUDIO TITLE "'Recollections of Paganini' in C major, WoO 8, S. 190 - Rondo -" PERFORMER "Madoka Inui" FLAGS DCP INDEX 01 59:31:10 TRACK 15 AUDIO TITLE "'Recollections of Paganini' in C major, WoO 8, S. 190 - Campanella" PERFORMER "Madoka Inui" FLAGS DCP INDEX 01 61:11:21 TRACK 16 AUDIO TITLE "Fantasina in C major on 'Non piu andrai', Op. 124" PERFORMER "Madoka Inui" FLAGS DCP INDEX 00 62:51:23 INDEX 01 62:52:34

Вариант индексной карты (.CUE) с подправленными индексами

REM GENRE ClassicalREM DATE 2005REM DISCID DF101310REM COMMENT "ExactAudioCopy v1.0b3"PERFORMER "Madoka Inui"TITLE "Hummel – Fantasies – Madoka Inui"FILE "Hummel – Fantasies – Madoka Inui.flac" WAVE TRACK 01 AUDIO FLAGS DCP TITLE "Fantasia in G minor, Op. 123 - Introduzione -" PERFORMER "Madoka Inui" INDEX 00 00:00:00 INDEX 01 00:01:29 TRACK 02 AUDIO FLAGS DCP TITLE "Fantasia in G minor, Op. 123 - The Hunter's Song -" PERFORMER "Madoka Inui" INDEX 01 01:09:70 TRACK 03 AUDIO FLAGS DCP TITLE "Fantasia in G minor, Op. 123 - March -" PERFORMER "Madoka Inui" INDEX 01 03:30:58 TRACK 04 AUDIO FLAGS DCP TITLE "Fantasia in G minor, Op. 123 - The Bloodhound -" PERFORMER "Madoka Inui" INDEX 01 06:26:29 TRACK 05 AUDIO FLAGS DCP TITLE "Fantasia in G minor, Op. 123 - The Roaming Mariners" PERFORMER "Madoka Inui" INDEX 01 09:11:62 TRACK 06 AUDIO FLAGS DCP TITLE "Fantasia in E flat major, Op. 18 - Lento - Allegro con fuoco -" PERFORMER "Madoka Inui" INDEX 00 12:14:20 INDEX 01 12:17:01 TRACK 07 AUDIO FLAGS DCP TITLE "Fantasia in E flat major, Op. 18 - Larghetto e cantabile -" PERFORMER "Madoka Inui" INDEX 01 20:20:54 TRACK 08 AUDIO FLAGS DCP TITLE "Fantasia in E flat major, Op. 18 - Allegro assai -" PERFORMER "Madoka Inui" INDEX 01 28:58:25 TRACK 09 AUDIO FLAGS DCP TITLE "Fantasia in E flat major, Op. 18 - Presto" PERFORMER "Madoka Inui" INDEX 01 33:23:72 TRACK 10 AUDIO FLAGS DCP TITLE "Rondo quasi una fantasia in E major, Op. 19" PERFORMER "Madoka Inui" INDEX 00 35:38:10 INDEX 01 35:40:35 TRACK 11 AUDIO FLAGS DCP TITLE "Six Bagatelles, Op. 107 - No. 3 in A flat major 'La Contemplazione'" PERFORMER "Madoka Inui" INDEX 00 44:00:71 INDEX 01 44:03:18 TRACK 12 AUDIO FLAGS DCP TITLE "'Recollections of Paganini' in C major, WoO 8, S. 190 - Caprice -" PERFORMER "Madoka Inui" INDEX 00 53:02:61 INDEX 01 53:06:68 TRACK 13 AUDIO FLAGS DCP TITLE "'Recollections of Paganini' in C major, WoO 8, S. 190 - Quartet -" PERFORMER "Madoka Inui" INDEX 01 56:26:29 TRACK 14 AUDIO FLAGS DCP TITLE "'Recollections of Paganini' in C major, WoO 8, S. 190 - Rondo -" PERFORMER "Madoka Inui" INDEX 01 59:31:34 TRACK 15 AUDIO FLAGS DCP TITLE "'Recollections of Paganini' in C major, WoO 8, S. 190 - Campanella" PERFORMER "Madoka Inui" INDEX 01 61:11:51 TRACK 16 AUDIO FLAGS DCP TITLE "Fantasina in C major on 'Non piu andrai', Op. 124" PERFORMER "Madoka Inui" INDEX 00 62:51:23 INDEX 01 62:53:07 INDEX 02 68:32:01
-У Гуммеля была еще одна, самая ранняя, фортепианная фантазия — Фантазия As-dur на темы Гайдна и Моцарта, S. 27 (1799).
Отделение здесь восьмого трека от девятого — очевидная ошибка.



Показать сообщения:    

Текущее время: 09-Дек 06:56

Часовой пояс: UTC + 3


Вы не можете начинать темы
Вы не можете отвечать на сообщения
Вы не можете редактировать свои сообщения
Вы не можете удалять свои сообщения
Вы не можете голосовать в опросах
Вы не можете прикреплять файлы к сообщениям
Вы не можете скачивать файлы