(Baroque harpsichord) Francois Couperin - Premier livre de Pieces de clavecin [3CD](Christophe Rousset) - 1994, FLAC (image+.cue) lossless


 

[Цитировать]

Francois Couperin - Premier livre de Pièces de clavecin

Жанр: Baroque harpsichord
Страна-производитель диска: Made in Germany
Год издания диска: 1994
Издатель (лейбл): harmonia mundi s.a.
Номер по каталогу: HMC 901450.52
Дата записи: 1994
Аудиокодек: FLAC
Тип рипа: image+.cue
Битрейт аудио: lossless
Продолжительность: CD1 66'25 , CD2 58'05 , CD3 57'11
Источник: релизер
сайт-источник/ник/другое: Saoshya and Meeting in Music blogspot
Наличие сканов в содержимом раздачи: да
Треклист:

скрытый текст

CD1

скрытый текст

Premier Ordre
1. Allemande, L'Auguste
2. Premiere Courante
3. Seconde Courante
4. Sarabande, La Majestueuse
5. Gavotte
6. La Milordine, Gigue
7. Menuet & Double
8. Les Silvains, Rondeau
9. Les Abeilles, Rondeau
10. La Nanete Écouter
11. Les Sentimens
12. La Pastorelle
13. Les Nonete
14. La Bourbonnoise, Gavotte
15. La Manon
16. L'Enchanteresse
17. La Fleurie Ou La Tendre Nanette
18. Les Plaisirs De Saint Germain En Laye
Second Ordre
19. Allemande, La Laborieuse
20. Premiere Courante
21. Deuxieme Courante
22. Sarabande, La Prude
23. L'Antonine
24. Gavote
25. Menuet
26. Canaries & Doubles
27. Passepied
28. Rigaudon
29. La Charoloise
30. La Diane
31. Fanfare Pour La Suite De Diane
32. La Terpsicore
33. La Florentine
CD2

скрытый текст

1. La Garnier
2. La Babet
3. Les Idees Heureuses
4. La Mimi
5. La Diligente
6. La Flateuse
7. La Voluptueuse, Rondeau
8. Les Papillons
Troisieme Ordre
9. La Tenebreuse, Allemande
10. Premiere Courante
11. Deuxieme Courante
12. La Lugubre, Sarabande
13. Gavote
14. Menuet
15. Les Pelerines
16. Les Laurentines
17. L'Espagnolete
18. Les Regrets
19. Les Matelotes Provencales
20. La Favorite
21. La Lutine
CD3

скрытый текст

Quatrieme Ordre
1. La Marche Des Gris-Vetus
2. 1e Partie : Enjouemens Bachiques
3. 2e Partie : Tendresses Bachiques
4. 3e Partie : Fureurs Bachiques
5. La Pateline
6. Le Reveil-Matin
Cinquieme Ordre
7. La Logiviere, Allemande
8. Premiere Courante
9. Seconde Courante
10.Sarabande, La Dangereuse
11.Gigue
12. La Tendre Fanchon, Rondeau
13. La Badine, Rondeau
14. La Bandoline, Rondeau
15. La Flore
16. L'Angelique, Rondeau
17. La Villers
18. Les Vendangeuses
19. Les Agremens
20. Les Ondes, Rondeau
21. Sicilienne
Исполнители:

скрытый текст

Francois Couperin
Premier livre de Pièces de clavecin
Christophe Rousset, clavecin

Лог создания рипа

CD1

скрытый текст

Exact Audio Copy V0.99 prebeta 4 from 23. January 2008
EAC extraction logfile from 26. September 2014, 8:30
Christophe Rousset / François Couperin - Premier livre de Pièces de clavecin CD1
Used drive : SONY DVD-ROM DDU1615 Adapter: 0 ID: 0
Read mode : Secure
Utilize accurate stream : Yes
Defeat audio cache : Yes
Make use of C2 pointers : No
Read offset correction : 6
Overread into Lead-In and Lead-Out : No
Fill up missing offset samples with silence : Yes
Delete leading and trailing silent blocks : No
Null samples used in CRC calculations : Yes
Used interface : Native Win32 interface for Win NT & 2000
Used output format : User Defined Encoder
Selected bitrate : 1024 kBit/s
Quality : High
Add ID3 tag : No
Command line compressor : C:\Program Files\REACT\REACT.exe
Additional command line options : REACT %o %s %d "%a" "%g" "%t" "%n" "%x" "%y" "%m" "%e" "%f" "%b" %r
TOC of the extracted CD
Track | Start | Length | Start sector | End sector
---------------------------------------------------------
1 | 0:00.32 | 3:17.68 | 32 | 14874
2 | 3:18.25 | 1:34.05 | 14875 | 21929
3 | 4:52.30 | 2:10.07 | 21930 | 31686
4 | 7:02.37 | 2:46.63 | 31687 | 44199
5 | 9:49.25 | 1:25.07 | 44200 | 50581
6 | 11:14.32 | 1:40.03 | 50582 | 58084
7 | 12:54.35 | 1:43.05 | 58085 | 65814
8 | 14:37.40 | 4:01.70 | 65815 | 83959
9 | 18:39.35 | 1:10.70 | 83960 | 89279
10 | 19:50.30 | 1:05.02 | 89280 | 94156
11 | 20:55.32 | 3:53.45 | 94157 | 111676
12 | 24:49.02 | 0:57.13 | 111677 | 115964
13 | 25:46.15 | 2:00.67 | 115965 | 125031
14 | 27:47.07 | 0:51.63 | 125032 | 128919
15 | 28:38.70 | 1:09.10 | 128920 | 134104
16 | 29:48.05 | 2:18.67 | 134105 | 144521
17 | 32:06.72 | 2:38.10 | 144522 | 156381
18 | 34:45.07 | 3:23.00 | 156382 | 171606
19 | 38:08.07 | 4:31.43 | 171607 | 191974
20 | 42:39.50 | 1:50.25 | 191975 | 200249
21 | 44:30.00 | 2:15.50 | 200250 | 210424
22 | 46:45.50 | 2:43.72 | 210425 | 222721
23 | 49:29.47 | 1:21.03 | 222722 | 228799
24 | 50:50.50 | 1:00.67 | 228800 | 233366
25 | 51:51.42 | 1:05.08 | 233367 | 238249
26 | 52:56.50 | 1:54.72 | 238250 | 246871
27 | 54:51.47 | 1:38.03 | 246872 | 254224
28 | 56:29.50 | 1:25.72 | 254225 | 260671
29 | 57:55.47 | 0:43.03 | 260672 | 263899
30 | 58:38.50 | 1:12.10 | 263900 | 269309
31 | 59:50.60 | 0:41.35 | 269310 | 272419
32 | 60:32.20 | 4:09.05 | 272420 | 291099
33 | 64:41.25 | 1:45.00 | 291100 | 298974
Range status and errors
Selected range
Filename L:\Ripped by Saoshya\HMC901450.52 Francois Couperin - Premier livre de Pieces de clavecin (Christophe Rousset)\CDImage 1\F Couperin - Premier livre de Pieces de clavecin - Christophe Rousset CD1.wav
Peak level 49.5 %
Range quality 100.0 %
Test CRC FE1100E5
Copy CRC FE1100E5
Copy OK
No errors occurred
AccurateRip summary
Track 1 accurately ripped (confidence 5) [EED9BAEF]
Track 2 accurately ripped (confidence 5) [E571B396]
Track 3 accurately ripped (confidence 5) [B3294737]
Track 4 accurately ripped (confidence 5) [9A2DDFDC]
Track 5 accurately ripped (confidence 5) [A36ED6ED]
Track 6 accurately ripped (confidence 5) [5EDBD9BB]
Track 7 accurately ripped (confidence 5) [F3A4A4C0]
Track 8 accurately ripped (confidence 5) [90C26BDB]
Track 9 accurately ripped (confidence 5) [5441E329]
Track 10 accurately ripped (confidence 5) [39022068]
Track 11 accurately ripped (confidence 5) [BA673772]
Track 12 accurately ripped (confidence 5) [65D5AAF6]
Track 13 accurately ripped (confidence 5) [26F31212]
Track 14 accurately ripped (confidence 5) [91C5337B]
Track 15 accurately ripped (confidence 5) [D5A6C8BC]
Track 16 accurately ripped (confidence 5) [0AE2CD6F]
Track 17 accurately ripped (confidence 5) [1679BFE3]
Track 18 accurately ripped (confidence 5) [DE09A344]
Track 19 accurately ripped (confidence 5) [6F4910B4]
Track 20 accurately ripped (confidence 5) [2E0DB196]
Track 21 accurately ripped (confidence 5) [2BC2DCC5]
Track 22 accurately ripped (confidence 5) [D6339551]
Track 23 accurately ripped (confidence 5) [2556655C]
Track 24 accurately ripped (confidence 5) [28631A00]
Track 25 accurately ripped (confidence 5) [52B218FE]
Track 26 accurately ripped (confidence 5) [9F583757]
Track 27 accurately ripped (confidence 5) [6EA9E2E3]
Track 28 accurately ripped (confidence 5) [3B3EC476]
Track 29 accurately ripped (confidence 5) [A6B67F02]
Track 30 accurately ripped (confidence 5) [A2246364]
Track 31 accurately ripped (confidence 5) [6B8C130B]
Track 32 accurately ripped (confidence 5) [E125943F]
Track 33 accurately ripped (confidence 4) [B6BC8A57]
All tracks accurately ripped
End of status report
CD2

скрытый текст

Exact Audio Copy V0.99 prebeta 4 from 23. January 2008
EAC extraction logfile from 26. September 2014, 9:00
Christophe Rousset / François Couperin - Premier livre de Pièces de clavecin CD2
Used drive : SONY DVD-ROM DDU1615 Adapter: 0 ID: 0
Read mode : Secure
Utilize accurate stream : Yes
Defeat audio cache : Yes
Make use of C2 pointers : No
Read offset correction : 6
Overread into Lead-In and Lead-Out : No
Fill up missing offset samples with silence : Yes
Delete leading and trailing silent blocks : No
Null samples used in CRC calculations : Yes
Used interface : Native Win32 interface for Win NT & 2000
Used output format : User Defined Encoder
Selected bitrate : 1024 kBit/s
Quality : High
Add ID3 tag : No
Command line compressor : C:\Program Files\REACT\REACT.exe
Additional command line options : REACT %o %s %d "%a" "%g" "%t" "%n" "%x" "%y" "%m" "%e" "%f" "%b" %r
TOC of the extracted CD
Track | Start | Length | Start sector | End sector
---------------------------------------------------------
1 | 0:00.32 | 4:39.35 | 32 | 20991
2 | 4:39.67 | 2:00.13 | 20992 | 30004
3 | 6:40.05 | 5:13.37 | 30005 | 53516
4 | 11:53.42 | 2:12.08 | 53517 | 63424
5 | 14:05.50 | 2:27.00 | 63425 | 74449
6 | 16:32.50 | 2:35.00 | 74450 | 86074
7 | 19:07.50 | 2:45.72 | 86075 | 98521
8 | 21:53.47 | 1:53.68 | 98522 | 107064
9 | 23:47.40 | 4:17.07 | 107065 | 126346
10 | 28:04.47 | 1:38.40 | 126347 | 133736
11 | 29:43.12 | 2:05.33 | 133737 | 143144
12 | 31:48.45 | 3:12.67 | 143145 | 157611
13 | 35:01.37 | 1:01.53 | 157612 | 162239
14 | 36:03.15 | 0:54.32 | 162240 | 166321
15 | 36:57.47 | 3:13.65 | 166322 | 180861
16 | 40:11.37 | 4:53.05 | 180862 | 202841
17 | 45:04.42 | 1:25.03 | 202842 | 209219
18 | 46:29.45 | 3:21.70 | 209220 | 224364
19 | 49:51.40 | 2:15.72 | 224365 | 234561
20 | 52:07.37 | 4:01.58 | 234562 | 252694
21 | 56:09.20 | 1:56.62 | 252695 | 261456
Range status and errors
Selected range
Filename L:\Ripped by Saoshya\HMC901450.52 Francois Couperin - Premier livre de Pieces de clavecin (Christophe Rousset)\CDImage 2\F Couperin - Premier livre de Pieces de clavecin - Christophe Rousset CD2.wav
Peak level 58.5 %
Range quality 99.9 %
Test CRC 888C9C34
Copy CRC 888C9C34
Copy OK
No errors occurred
AccurateRip summary
Track 1 accurately ripped (confidence 5) [9CC82146]
Track 2 accurately ripped (confidence 5) [7D1E875A]
Track 3 accurately ripped (confidence 5) [08A8D112]
Track 4 accurately ripped (confidence 5) [6BC7B097]
Track 5 accurately ripped (confidence 5) [4B31C1D4]
Track 6 accurately ripped (confidence 5) [5CFB91C7]
Track 7 accurately ripped (confidence 5) [44548752]
Track 8 accurately ripped (confidence 5) [1BFFDEAE]
Track 9 accurately ripped (confidence 5) [321B77B0]
Track 10 accurately ripped (confidence 5) [63DBF7BD]
Track 11 accurately ripped (confidence 5) [DD3CBF97]
Track 12 accurately ripped (confidence 5) [CBF9648C]
Track 13 accurately ripped (confidence 5) [07F6278B]
Track 14 accurately ripped (confidence 5) [41B4D825]
Track 15 accurately ripped (confidence 5) [99159BFF]
Track 16 accurately ripped (confidence 5) [F324AE4C]
Track 17 accurately ripped (confidence 5) [E1B927A2]
Track 18 accurately ripped (confidence 5) [E5C0E955]
Track 19 accurately ripped (confidence 5) [141B7DDA]
Track 20 accurately ripped (confidence 5) [16AB2B9A]
Track 21 accurately ripped (confidence 5) [46D95EED]
All tracks accurately ripped
End of status report
CD3

скрытый текст

Exact Audio Copy V0.99 prebeta 4 from 23. January 2008
EAC extraction logfile from 26. September 2014, 9:23
Christophe Rousset / François Couperin - Premier livre de Pièces de clavecin CD3
Used drive : SONY DVD-ROM DDU1615 Adapter: 0 ID: 0
Read mode : Secure
Utilize accurate stream : Yes
Defeat audio cache : Yes
Make use of C2 pointers : No
Read offset correction : 6
Overread into Lead-In and Lead-Out : No
Fill up missing offset samples with silence : Yes
Delete leading and trailing silent blocks : No
Null samples used in CRC calculations : Yes
Used interface : Native Win32 interface for Win NT & 2000
Used output format : User Defined Encoder
Selected bitrate : 1024 kBit/s
Quality : High
Add ID3 tag : No
Command line compressor : C:\Program Files\REACT\REACT.exe
Additional command line options : REACT %o %s %d "%a" "%g" "%t" "%n" "%x" "%y" "%m" "%e" "%f" "%b" %r
TOC of the extracted CD
Track | Start | Length | Start sector | End sector
---------------------------------------------------------
1 | 0:00.32 | 2:48.25 | 32 | 12656
2 | 2:48.57 | 1:48.65 | 12657 | 20821
3 | 4:37.47 | 4:56.18 | 20822 | 43039
4 | 9:33.65 | 2:15.62 | 43040 | 53226
5 | 11:49.52 | 2:57.58 | 53227 | 66559
6 | 14:47.35 | 3:09.02 | 66560 | 80736
7 | 17:56.37 | 4:41.10 | 80737 | 101821
8 | 22:37.47 | 2:16.13 | 101822 | 112034
9 | 24:53.60 | 1:51.60 | 112035 | 120419
10 | 26:45.45 | 3:39.07 | 120420 | 136851
11 | 30:24.52 | 1:53.03 | 136852 | 145329
12 | 32:17.55 | 3:40.47 | 145330 | 161876
13 | 35:58.27 | 1:28.23 | 161877 | 168499
14 | 37:26.50 | 1:53.02 | 168500 | 176976
15 | 39:19.52 | 1:40.48 | 176977 | 184524
16 | 41:00.25 | 2:21.22 | 184525 | 195121
17 | 43:21.47 | 2:26.05 | 195122 | 206076
18 | 45:47.52 | 1:44.65 | 206077 | 213941
19 | 47:32.42 | 5:25.08 | 213942 | 238324
20 | 52:57.50 | 2:28.67 | 238325 | 249491
21 | 55:26.42 | 1:45.25 | 249492 | 257391
Range status and errors
Selected range
Filename L:\Ripped by Saoshya\HMC901450.52 Francois Couperin - Premier livre de Pieces de clavecin (Christophe Rousset)\CDImage 3\F Couperin - Premier livre de Pieces de clavecin - Christophe Rousset CD3.wav
Peak level 58.1 %
Range quality 99.9 %
Test CRC 2943907D
Copy CRC 2943907D
Copy OK
No errors occurred
AccurateRip summary
Track 1 accurately ripped (confidence 5) [4EE28057]
Track 2 accurately ripped (confidence 5) [1595EB94]
Track 3 accurately ripped (confidence 5) [CAE72A6E]
Track 4 accurately ripped (confidence 5) [5EDF1700]
Track 5 accurately ripped (confidence 5) [CBAFCF23]
Track 6 accurately ripped (confidence 5) [30F52449]
Track 7 accurately ripped (confidence 5) [A68C60B3]
Track 8 accurately ripped (confidence 5) [3264A0E2]
Track 9 accurately ripped (confidence 5) [56105FF9]
Track 10 accurately ripped (confidence 5) [AE12DF2D]
Track 11 accurately ripped (confidence 5) [FA3DB251]
Track 12 accurately ripped (confidence 5) [5B354238]
Track 13 accurately ripped (confidence 5) [3E59D48B]
Track 14 accurately ripped (confidence 5) [7A5456ED]
Track 15 accurately ripped (confidence 5) [23B28510]
Track 16 accurately ripped (confidence 5) [B814614D]
Track 17 accurately ripped (confidence 5) [93EB0940]
Track 18 accurately ripped (confidence 5) [E903C7BE]
Track 19 accurately ripped (confidence 5) [30839065]
Track 20 accurately ripped (confidence 5) [B14A05C5]
Track 21 accurately ripped (confidence 5) [55A6BC85]
All tracks accurately ripped
End of status report



Показать сообщения:    

Текущее время: 09-Дек 20:31

Часовой пояс: UTC + 3


Вы не можете начинать темы
Вы не можете отвечать на сообщения
Вы не можете редактировать свои сообщения
Вы не можете удалять свои сообщения
Вы не можете голосовать в опросах
Вы не можете прикреплять файлы к сообщениям
Вы не можете скачивать файлы