(Classical) Ligeti: Sonate pour alto • Holliger: Trema • Scelsi: Manto • Lachenmann: Toccatina - Genevieve Strosser - 2011, FLAC (image+.cue) lossless


 

[Цитировать]

Ligeti: Sonate pour alto • Holliger: Trema • Scelsi: Manto • Lachenmann: Toccatina - Geneviève Strosser
Жанр: Classical
Страна-производитель диска: France
Год издания диска: 2011
Издатель (лейбл): Aeon
Номер по каталогу: AECD 1100
Дата записи: 2009
Аудиокодек: FLAC
Тип рипа: image+.cue
Битрейт аудио: lossless
Продолжительность: 71:21
Источник: собственный рип
Наличие сканов в содержимом раздачи: да
Треклист:
Heinz Holliger
[1] Trema (1981)
György Ligeti
[2]-[7] Sonate pour alto (1991-1994)
Franco Donatori
[8]-[9] Ali (1977)
Helmut Lachenmann
[10] Toccatina (1986)
Giacinto Scelsi
[11]-[13] Manto (1957)
Исполнители:
Geneviève Strosser viola

Лог создания рипа

Exact Audio Copy V1.0 beta 3 from 29. August 2011
EAC extraction logfile from 27. September 2014, 17:42
Genevieve Strosser / Ligeti - Sonate pour alto
Used drive : HL-DT-STDVDRAM GU70N Adapter: 0 ID: 0
Read mode : SecureUtilize accurate stream : YesDefeat audio cache : YesMake use of C2 pointers : No
Read offset correction : 48Overread into Lead-In and Lead-Out : NoFill up missing offset samples with silence : YesDelete leading and trailing silent blocks : NoNull samples used in CRC calculations : YesUsed interface : Native Win32 interface for Win NT & 2000
Used output format : User Defined EncoderSelected bitrate : 128 kBit/sQuality : HighAdd ID3 tag : NoCommand line compressor : C:\Program Files (x86)\Exact Audio Copy\Flac\flac.exeAdditional command line options : -V -8 -T "Date=%year%" -T "Genre=%genre%" %source%
TOC of the extracted CD
Track | Start | Length | Start sector | End sector --------------------------------------------------------- 1 | 0:00.00 | 13:35.58 | 0 | 61182 2 | 13:35.58 | 6:35.36 | 61183 | 90843 3 | 20:11.19 | 2:40.68 | 90844 | 102911 4 | 22:52.12 | 6:10.08 | 102912 | 130669 5 | 29:02.20 | 1:25.60 | 130670 | 137104 6 | 30:28.05 | 3:08.14 | 137105 | 151218 7 | 33:36.19 | 2:54.56 | 151219 | 164324 8 | 36:31.00 | 6:37.66 | 164325 | 194165 9 | 43:08.66 | 5:53.02 | 194166 | 220642 10 | 49:01.68 | 7:08.27 | 220643 | 252769 11 | 56:10.20 | 5:38.35 | 252770 | 278154 12 | 61:48.55 | 5:53.70 | 278155 | 304699 13 | 67:42.50 | 3:38.58 | 304700 | 321107
Range status and errors
Selected range
Filename C:\temp\Ligeti - Sonate pour alto - Genevieve Strosser\Ligeti - Sonate pour alto.wav
Peak level 98.7 % Extraction speed 2.3 X Range quality 100.0 % Test CRC 5A2F857C Copy CRC 5A2F857C Copy OK
No errors occurred
AccurateRip summary
Track 1 not present in databaseTrack 2 not present in databaseTrack 3 not present in databaseTrack 4 not present in databaseTrack 5 not present in databaseTrack 6 not present in databaseTrack 7 not present in databaseTrack 8 not present in databaseTrack 9 not present in databaseTrack 10 not present in databaseTrack 11 not present in databaseTrack 12 not present in databaseTrack 13 not present in database
None of the tracks are present in the AccurateRip database
End of status report
==== Log checksum 06A47EDE4500668426E49B2DA828FB5813F78D2539CB00F5CFBAA9B2D2E3C3AF ====



Показать сообщения:    

Текущее время: 18-Янв 02:32

Часовой пояс: UTC + 3


Вы не можете начинать темы
Вы не можете отвечать на сообщения
Вы не можете редактировать свои сообщения
Вы не можете удалять свои сообщения
Вы не можете голосовать в опросах
Вы не можете прикреплять файлы к сообщениям
Вы не можете скачивать файлы