(Classical, Guitar) Maria Esther Guzman - Cantos de Espana {Albeniz, Halffter, Turina, Llobet, Barrios, Maza} - 1992 (Japan Edition), FLAC (tracks+.cue), lossless


 

[Цитировать]

Maria Esther Guzman - Cantos de Espana
Жанр: Classical, Guitar
Страна-производитель диска: Япония
Год издания диска: 1992
Издатель (лейбл): Fun House
Номер по каталогу: FHCE-2001
Аудиокодек: FLAC
Тип рипа: tracks+.cue
Битрейт аудио: lossless
Продолжительность: 56:59
Источник (релизер): JJKWCD (what)
Наличие сканов в содержимом раздачи: да
Треклист:
Isaac Albeniz
01. Sevilla (5:13)
02. Cordoba (Nocturne) (6:58)
03. Puerta de Tierra (Bolero) (4:14)
04. Ernesto Halffter: Danza de Pastora (4:28)
Joaquin Turina
05. Sevillana Fantasia, Op.29 (6:30)
06. Homenaje a Tarrega, Op.69 (5:02)
07. Romance (Trad.) (2:20)
Miguel Llobet: Cuatro Canciones Populares Catalanas
08. El Testament de Amelia (2:04)
09. Canco del Lladre (2:04)
10. La Filadora (1:13)
11. La Filla del Marxant (3:05)
12. Angel Barrios: Guajira (3:47)
Regino Sainz de la Maza
13. Canciones Castellanas (7:02)
14. El Vito (2:59)
Исполнитель:
Maria Esther Guzman - guitar
Recorded at Lilia Hall, Kawaguchi on October 28, 1991.

Лог создания рипа

Exact Audio Copy V1.0 beta 3 from 29. August 2011
EAC extraction logfile from 18. August 2014, 19:02
María Ester Guzmán / Cantos de España
Used drive : HL-DT-STDVDRAM GH24NS50 Adapter: 2 ID: 1
Read mode : SecureUtilize accurate stream : YesDefeat audio cache : YesMake use of C2 pointers : No
Read offset correction : 667Overread into Lead-In and Lead-Out : NoFill up missing offset samples with silence : YesDelete leading and trailing silent blocks : NoNull samples used in CRC calculations : YesUsed interface : Native Win32 interface for Win NT & 2000Gap handling : Appended to previous track
Used output format : User Defined EncoderSelected bitrate : 1024 kBit/sQuality : HighAdd ID3 tag : NoCommand line compressor : D:\Program Files\FLAC\flac.exeAdditional command line options : -8 -V -T "ARTIST=%artist%" -T "TITLE=%title%" -T "ALBUM=%albumtitle%" -T "DATE=%year%" -T "TRACKNUMBER=%tracknr%" -T "TOTALTRACKS=%numtracks%" -T "GENRE=%genre%" -T "ALBUMARTIST=%albumartist%" -T "ALBUM ARTIST=%albumartist%" -T "COMMENT=EAC Secure Mode, Test & Copy, AccurateRip, FLAC -8" %source%
TOC of the extracted CD
Track | Start | Length | Start sector | End sector --------------------------------------------------------- 1 | 0:00.00 | 5:12.60 | 0 | 23459 2 | 5:12.60 | 6:58.05 | 23460 | 54814 3 | 12:10.65 | 4:13.52 | 54815 | 73841 4 | 16:24.42 | 4:27.58 | 73842 | 93924 5 | 20:52.25 | 6:30.00 | 93925 | 123174 6 | 27:22.25 | 5:02.17 | 123175 | 145841 7 | 32:24.42 | 2:20.03 | 145842 | 156344 8 | 34:44.45 | 2:04.12 | 156345 | 165656 9 | 36:48.57 | 2:04.10 | 165657 | 174966 10 | 38:52.67 | 1:12.70 | 174967 | 180436 11 | 40:05.62 | 3:04.48 | 180437 | 194284 12 | 43:10.35 | 3:47.02 | 194285 | 211311 13 | 46:57.37 | 7:02.05 | 211312 | 242966 14 | 53:59.42 | 2:58.43 | 242967 | 256359
Track 1
Filename D:\Maria Esther Guzman - (1992) Cantos de Espana (FHCE-2001) [FLAC]\01 - Sevilla.wav
Pre-gap length 0:00:02.00
Peak level 100.0 % Extraction speed 1.1 X Track quality 100.0 % Test CRC 88E6C5B6 Copy CRC 88E6C5B6 Track not present in AccurateRip database Copy OK
Track 2
Filename D:\Maria Esther Guzman - (1992) Cantos de Espana (FHCE-2001) [FLAC]\02 - Cordoba -Nocturne-.wav
Pre-gap length 0:00:03.00
Peak level 57.9 % Extraction speed 1.3 X Track quality 100.0 % Test CRC 88909F17 Copy CRC 88909F17 Track not present in AccurateRip database Copy OK
Track 3
Filename D:\Maria Esther Guzman - (1992) Cantos de Espana (FHCE-2001) [FLAC]\03 - Puerta de Tierra -Bolero-.wav
Pre-gap length 0:00:05.08
Peak level 94.8 % Extraction speed 1.3 X Track quality 100.0 % Test CRC 3A0AC7C8 Copy CRC 3A0AC7C8 Track not present in AccurateRip database Copy OK
Track 4
Filename D:\Maria Esther Guzman - (1992) Cantos de Espana (FHCE-2001) [FLAC]\04 - Danza de Pastora.wav
Pre-gap length 0:00:05.35
Peak level 40.7 % Extraction speed 1.4 X Track quality 100.0 % Test CRC 2041B738 Copy CRC 2041B738 Track not present in AccurateRip database Copy OK
Track 5
Filename D:\Maria Esther Guzman - (1992) Cantos de Espana (FHCE-2001) [FLAC]\05 - Sevillana Fantasia Op.29.wav
Pre-gap length 0:00:04.25
Peak level 100.0 % Extraction speed 1.6 X Track quality 100.0 % Test CRC 4C2D7204 Copy CRC 4C2D7204 Track not present in AccurateRip database Copy OK
Track 6
Filename D:\Maria Esther Guzman - (1992) Cantos de Espana (FHCE-2001) [FLAC]\06 - Homenaje a Tarrega Op.69.wav
Pre-gap length 0:00:04.18
Peak level 100.0 % Extraction speed 1.7 X Track quality 100.0 % Test CRC D8705903 Copy CRC D8705903 Track not present in AccurateRip database Copy OK
Track 7
Filename D:\Maria Esther Guzman - (1992) Cantos de Espana (FHCE-2001) [FLAC]\07 - Romance.wav
Pre-gap length 0:00:05.02
Peak level 34.6 % Extraction speed 1.5 X Track quality 100.0 % Test CRC 396E2189 Copy CRC 396E2189 Track not present in AccurateRip database Copy OK
Track 8
Filename D:\Maria Esther Guzman - (1992) Cantos de Espana (FHCE-2001) [FLAC]\08 - Cuatro Canciones populares catalanas- El testament de Amelia.wav
Pre-gap length 0:00:04.53
Peak level 24.6 % Extraction speed 1.2 X Track quality 99.9 % Test CRC DD8D45DE Copy CRC DD8D45DE Track not present in AccurateRip database Copy OK
Track 9
Filename D:\Maria Esther Guzman - (1992) Cantos de Espana (FHCE-2001) [FLAC]\09 - Cuatro Canciones populares catalanas- Canco del Lladre.wav
Pre-gap length 0:00:02.37
Peak level 35.1 % Extraction speed 1.3 X Track quality 99.9 % Test CRC 06FF7787 Copy CRC 06FF7787 Track not present in AccurateRip database Copy OK
Track 10
Filename D:\Maria Esther Guzman - (1992) Cantos de Espana (FHCE-2001) [FLAC]\10 - Cuatro Canciones populares catalanas- La Filadora.wav
Pre-gap length 0:00:03.07
Peak level 34.3 % Extraction speed 1.3 X Track quality 100.0 % Test CRC 18AC2AF4 Copy CRC 18AC2AF4 Track not present in AccurateRip database Copy OK
Track 11
Filename D:\Maria Esther Guzman - (1992) Cantos de Espana (FHCE-2001) [FLAC]\11 - Cuatro Canciones populares catalanas- La Filla del marxant.wav
Pre-gap length 0:00:03.45
Peak level 25.2 % Extraction speed 1.5 X Track quality 99.9 % Test CRC AFDE90EA Copy CRC AFDE90EA Track not present in AccurateRip database Copy OK
Track 12
Filename D:\Maria Esther Guzman - (1992) Cantos de Espana (FHCE-2001) [FLAC]\12 - Guajira.wav
Pre-gap length 0:00:04.73
Peak level 49.7 % Extraction speed 1.9 X Track quality 100.0 % Test CRC 0CAA049E Copy CRC 0CAA049E Track not present in AccurateRip database Copy OK
Track 13
Filename D:\Maria Esther Guzman - (1992) Cantos de Espana (FHCE-2001) [FLAC]\13 - Canciones castellanas.wav
Pre-gap length 0:00:05.25
Peak level 67.9 % Extraction speed 2.1 X Track quality 100.0 % Test CRC 0D8214E2 Copy CRC 0D8214E2 Track not present in AccurateRip database Copy OK
Track 14
Filename D:\Maria Esther Guzman - (1992) Cantos de Espana (FHCE-2001) [FLAC]\14 - El Vito.wav
Pre-gap length 0:00:04.32
Peak level 85.0 % Extraction speed 2.0 X Track quality 100.0 % Test CRC 429E8452 Copy CRC 429E8452 Track not present in AccurateRip database Copy OK
None of the tracks are present in the AccurateRip database
No errors occurred
End of status report
---- CUETools DB Plugin V2.1.3
[CTDB TOCID: uIQar6RLpRHK0FhOWBLGNP.J590-] disk not present in database, Submit result: uIQar6RLpRHK0FhOWBLGNP.J590- has been uploaded
==== Log checksum A68AE728ED200AF091E5821699354168AACE02355CDA5503E06ADD88619037B1 ====

Содержание индексной карты (.CUE)

REM GENRE ClassicalREM DATE 1992REM DISCID BA0D5A0EREM COMMENT "ExactAudioCopy v1.0b3"PERFORMER "Maria Esther Guzman"TITLE "Cantos de Espana"FILE "01 - Albeniz- Sevilla.wav" WAVE TRACK 01 AUDIO TITLE "Albeniz: Sevilla" PERFORMER "Maria Esther Guzman" INDEX 01 00:00:00 TRACK 02 AUDIO TITLE "Albeniz: Cordoba (Nocturne)" PERFORMER "Maria Esther Guzman" INDEX 00 05:09:60FILE "02 - Albeniz- Cordoba (Nocturne).wav" WAVE INDEX 01 00:00:00 TRACK 03 AUDIO TITLE "Albeniz: Puerta de Tierra (Bolero)" PERFORMER "Maria Esther Guzman" INDEX 00 06:52:72FILE "03 - Albeniz- Puerta de Tierra (Bolero).wav" WAVE INDEX 01 00:00:00 TRACK 04 AUDIO TITLE "Halffter: Danza de Pastora" PERFORMER "Maria Esther Guzman" INDEX 00 04:08:17FILE "04 - Halffter- Danza de Pastora.wav" WAVE INDEX 01 00:00:00 TRACK 05 AUDIO TITLE "Turina: Sevillana Fantasia, Op.29" PERFORMER "Maria Esther Guzman" INDEX 00 04:23:33FILE "05 - Turina- Sevillana Fantasia, Op.29.wav" WAVE INDEX 01 00:00:00 TRACK 06 AUDIO TITLE "Turina: Homenaje a Tarrega, Op.69" PERFORMER "Maria Esther Guzman" INDEX 00 06:25:57FILE "06 - Turina- Homenaje a Tarrega, Op.69.wav" WAVE INDEX 01 00:00:00 TRACK 07 AUDIO TITLE "Traditional: Romance" PERFORMER "Maria Esther Guzman" INDEX 00 04:57:15FILE "07 - Traditional- Romance.wav" WAVE INDEX 01 00:00:00 TRACK 08 AUDIO TITLE "Llobet: Cuatro Canciones Populares Catalanas: El Testament de Amelia" PERFORMER "Maria Esther Guzman" INDEX 00 02:15:25FILE "08 - Llobet- Cuatro Canciones Populares Catalanas- El Testament de Amelia.wav" WAVE INDEX 01 00:00:00 TRACK 09 AUDIO TITLE "Llobet: Cuatro Canciones Populares Catalanas: Canco del Lladre" PERFORMER "Maria Esther Guzman" INDEX 00 02:01:50FILE "09 - Llobet- Cuatro Canciones Populares Catalanas- Canco del Lladre.wav" WAVE INDEX 01 00:00:00 TRACK 10 AUDIO TITLE "Llobet: Cuatro Canciones Populares Catalanas: La Filadora" PERFORMER "Maria Esther Guzman" INDEX 00 02:01:03FILE "10 - Llobet- Cuatro Canciones Populares Catalanas- La Filadora.wav" WAVE INDEX 01 00:00:00 TRACK 11 AUDIO TITLE "Llobet: Cuatro Canciones Populares Catalanas: La Filla del Marxant" PERFORMER "Maria Esther Guzman" INDEX 00 01:09:25FILE "11 - Llobet- Cuatro Canciones Populares Catalanas- La Filla del Marxant.wav" WAVE INDEX 01 00:00:00 TRACK 12 AUDIO TITLE "Barrios: Guajira" PERFORMER "Maria Esther Guzman" INDEX 00 02:59:50FILE "12 - Barrios- Guajira.wav" WAVE INDEX 01 00:00:00 TRACK 13 AUDIO TITLE "Maza: Canciones Castellanas" PERFORMER "Maria Esther Guzman" INDEX 00 03:41:52FILE "13 - Maza- Canciones Castellanas.wav" WAVE INDEX 01 00:00:00 TRACK 14 AUDIO TITLE "Maza: El Vito" PERFORMER "Maria Esther Guzman" INDEX 00 06:57:48FILE "14 - Maza- El Vito.wav" WAVE INDEX 01 00:00:00

Отчет CUETools

[CUETools log; Date: 01.10.2014 16:41:52; Version: 2.1.5][CTDB TOCID: uIQar6RLpRHK0FhOWBLGNP.J590-] found.Track | CTDB Status 1 | (1/1) Accurately ripped 2 | (1/1) Accurately ripped 3 | (1/1) Accurately ripped 4 | (1/1) Accurately ripped 5 | (1/1) Accurately ripped 6 | (1/1) Accurately ripped 7 | (1/1) Accurately ripped 8 | (1/1) Accurately ripped 9 | (1/1) Accurately ripped 10 | (1/1) Accurately ripped 11 | (1/1) Accurately ripped 12 | (1/1) Accurately ripped 13 | (1/1) Accurately ripped 14 | (1/1) Accurately ripped[AccurateRip ID: 002000ed-0148a44b-ba0d5a0e] found.Track [ CRC | V2 ] Status 01 [58168874|18d4261e] (0+1/1) Accurately ripped 02 [ae428b7c|1d06b8b8] (0+1/1) Accurately ripped 03 [f423ae17|ab68af19] (0+1/1) Accurately ripped 04 [2eec2a72|2ae0f72e] (0+1/1) Accurately ripped 05 [407a1d77|c86bf1f2] (0+1/1) Accurately ripped 06 [c76a58ef|bc99a56c] (0+1/1) Accurately ripped 07 [ae8baebb|c82562ed] (0+1/1) Accurately ripped 08 [67609362|b3eb0995] (0+1/1) Accurately ripped 09 [054fcedf|d9f111fe] (0+1/1) Accurately ripped 10 [a6914a37|60b0ca9f] (0+1/1) Accurately ripped 11 [0495557c|13f73492] (0+1/1) Accurately ripped 12 [d6d01dc3|f7e246d3] (0+1/1) Accurately ripped 13 [2943955f|90ea2d1a] (0+1/1) Accurately ripped 14 [6fb46a37|6d664fd4] (0+1/1) Accurately ripped
Track Peak [ CRC32 ] [W/O NULL] [ LOG ] -- 100,0 [CBA2F804] [2EF1BDB1] 01 100,0 [88E6C5B6] [62934419] CRC32 02 57,9 [88909F17] [1603E31B] CRC32 03 94,8 [3A0AC7C8] [280A0039] CRC32 04 40,7 [2041B738] [0091CBCC] CRC32 05 100,0 [4C2D7204] [7FAD8DC2] CRC32 06 100,0 [D8705903] [5740B2C6] CRC32 07 34,6 [396E2189] [36022AC9] CRC32 08 24,6 [DD8D45DE] [67E24C62] CRC32 09 35,1 [06FF7787] [2E7EF8E8] CRC32 10 34,3 [18AC2AF4] [7A5F51A0] CRC32 11 25,2 [AFDE90EA] [76721B80] CRC32 12 49,7 [0CAA049E] [6A97B1A2] CRC32 13 67,9 [0D8214E2] [B48A6168] CRC32 14 85,0 [429E8452] [F52B5B24] CRC32



Показать сообщения:    

Текущее время: 07-Дек 11:37

Часовой пояс: UTC + 3


Вы не можете начинать темы
Вы не можете отвечать на сообщения
Вы не можете редактировать свои сообщения
Вы не можете удалять свои сообщения
Вы не можете голосовать в опросах
Вы не можете прикреплять файлы к сообщениям
Вы не можете скачивать файлы