(Classical) Tchaikovsky (Чайковский) / Mozart — The Seasons (Времена года) / Piano & Orchestra Concert Rondo KV 382 (Valery Grokhovsky / Валерий Гроховский; John Silantin) — 1998, APE (image+.cue) lossless


 

[Цитировать]

The Seasons (Времена года) / Piano & Orchestra Concert Rondo KV 382- Жанр: Classical
Страны-производители диска: США / Чехия
Год издания диска: 1998
Издатель (лейбл): Aquarius / The Best of Classics
Номер по каталогу: AQ 0001-2
Композиторы: Петр Чайковский / Wolfgang Amadeus Mozart
Аудио кодек: ape
Тип рипа: image+.cue
Битрейт аудио: lossless
Продолжительность: 00h47'13"
Источник: собственный рип
Наличие сканов в содержимом раздачи: нет-Треклист:
Pyotr Tchaikovsky / Петр Чайковский
The Seasons. 12 Characteristic Pictures Op 37-bis / Времена года. 12 характеристических картин Op 37-bis
01. I. By the Hearth (January) / Январь. У камелька [00h04'23"]
02. II. Shrovetide (February) / Февраль. Масленица [00h02'41"]
03. III. Song of the Lark (March) / Март. Песня жаворонка [00h02'20"]
04. IV. Snowdrop (April) / Апрель. Подснежник [00h02'08"]
05. V. White Nights (May) / Май. Белые ночи [00h03'52"]
06. VI. Barcarole (June) / Июнь. Баркарола [00h04'22"]
07. VII. Reaper's Song (July) / Июль. Песня косаря [00h01'37"]
08. VIII. Harvest (August) / Август. Жатва [00h03'21"]
09. IX. The Hunt (September) / Сентябрь. Охота [00h02'44"]
10. X. Autumn Song (October) / Октябрь. Осенняя песня [00h04'21"]
11. XI. Troika (November) / Ноябрь. На тройке [00h02'43"]
12. XII. Christmas (December) / Декабрь. Святки [00h03'32"]
Piano – Valery Grokhovsky / Валерий Гроховский
Wolfgang Amadeus Mozart
13. Piano & Orchestra Concert Rondo D-Dur KV 382 [00h09'08"]
Moscow State Symphony Orchestra / Московский государственный академический симфонический оркестр, cond. John Silantin, Piano – Valery Grokhovsky / Валерий Гроховский-

EAC log

Exact Audio Copy V0.99 prebeta 5 from 4. May 2009
Отчёт EAC об извлечении, выполненном 22. сентября 2014, 10:08
Grokhovsky / The Seasons & Rondo
Дисковод: MITSUMI CR-486ETE   Adapter: 0  ID: 0
Режим чтения                 : Достоверность
Использование точного потока : Да
Отключение кэша аудио        : Да
Использование указателей C2  : Нет
Коррекция смещения при чтении                     : 6
Способность читать области Lead-in и Lead-out     : Нет
Заполнение пропущенных сэмплов тишиной            : Да
Удаление блоков с тишиной в начале и конце        : Нет
При вычислениях CRC использовались нулевые сэмплы : Да
Интерфейс                                         : Установленный внешний ASPI-интерфейс
Выходной формат          : Monkey's Audio (без потерь)
Выбранный битрейт        : Normal Lossless Compression
Качество                 : Высокий
Добавление ID3-тэга      : Нет
Утилита сжатия           : C:\Program Files\Monkey's Audio\MAC.exe
TOC извлечённого CD
     Трек |   Старт  | Длительность | Начальный сектор | Конечный сектор
    ---------------------------------------------------------------------
       1  |  0:00.00 |    4:23.22   |           0      |      19746
       2  |  4:23.22 |    2:41.13   |       19747      |      31834
       3  |  7:04.35 |    2:20.00   |       31835      |      42334
       4  |  9:24.35 |    2:08.12   |       42335      |      51946
       5  | 11:32.47 |    3:52.13   |       51947      |      69359
       6  | 15:24.60 |    4:21.62   |       69360      |      88996
       7  | 19:46.47 |    1:36.60   |       88997      |      96256
       8  | 21:23.32 |    3:21.35   |       96257      |     111366
       9  | 24:44.67 |    2:43.73   |      111367      |     123664
      10  | 27:28.65 |    4:21.10   |      123665      |     143249
      11  | 31:50.00 |    2:43.02   |      143250      |     155476
      12  | 34:33.02 |    3:31.58   |      155477      |     171359
      13  | 38:04.60 |    9:08.05   |      171360      |     212464
Характеристики диапазона извлечения и сообщения об ошибках
Выбранный диапазон
     Имя файла D:\Музыка lossless\Grokhovsky The Seasons & Rondo\Grokhovsky - The Seasons & Rondo.wav
     Пиковый уровень 88.8 %
     Качество диапазона 100.0 %
     CRC теста C88CE058
     CRC копии C88CE058
     Копирование... OK
Ошибок не произошло
AccurateRip: сводка
Трек  1  нет в базе данных
Трек  2  нет в базе данных
Трек  3  нет в базе данных
Трек  4  нет в базе данных
Трек  5  нет в базе данных
Трек  6  нет в базе данных
Трек  7  нет в базе данных
Трек  8  нет в базе данных
Трек  9  нет в базе данных
Трек 10  нет в базе данных
Трек 11  нет в базе данных
Трек 12  нет в базе данных
Трек 13  нет в базе данных
Ни одного трека нет в базе AccurateRip
Конец отчёта

-

CUE

REM GENRE Classical
REM DATE 1998
REM DISCID BE0B100D
REM COMMENT "ExactAudioCopy v0.99pb5"
PERFORMER "Grokhovsky"
TITLE "The Seasons & Rondo"
FILE "Grokhovsky - The Seasons & Rondo.ape" WAVE
  TRACK 01 AUDIO
    TITLE "The Seasons – By the Hearth (January)"
    PERFORMER "Tchaikovsky"
    INDEX 01 00:00:00
  TRACK 02 AUDIO
    TITLE "The Seasons – Shrovetide (February)"
    PERFORMER "Tchaikovsky"
    INDEX 00 04:18:37
    INDEX 01 04:23:22
  TRACK 03 AUDIO
    TITLE "The Seasons – Song of the Lark (March)"
    PERFORMER "Tchaikovsky"
    INDEX 00 06:59:30
    INDEX 01 07:04:35
  TRACK 04 AUDIO
    TITLE "The Seasons – Snowdrop (April)"
    PERFORMER "Tchaikovsky"
    INDEX 00 09:19:72
    INDEX 01 09:24:35
  TRACK 05 AUDIO
    TITLE "The Seasons – White Nights (May)"
    PERFORMER "Tchaikovsky"
    INDEX 00 11:27:65
    INDEX 01 11:32:47
  TRACK 06 AUDIO
    TITLE "The Seasons – Barcarole (June)"
    PERFORMER "Tchaikovsky"
    INDEX 00 15:18:30
    INDEX 01 15:24:60
  TRACK 07 AUDIO
    TITLE "The Seasons – Reaper's Song (July)"
    PERFORMER "Tchaikovsky"
    INDEX 00 19:43:05
    INDEX 01 19:46:47
  TRACK 08 AUDIO
    TITLE "The Seasons – Harvest (August)"
    PERFORMER "Tchaikovsky"
    INDEX 00 21:18:40
    INDEX 01 21:23:32
  TRACK 09 AUDIO
    TITLE "The Seasons – The Hunt (September)"
    PERFORMER "Tchaikovsky"
    INDEX 00 24:40:22
    INDEX 01 24:44:67
  TRACK 10 AUDIO
    TITLE "The Seasons – Autumn Song (October)"
    PERFORMER "Tchaikovsky"
    INDEX 00 27:23:62
    INDEX 01 27:28:65
  TRACK 11 AUDIO
    TITLE "The Seasons – Troika (November)"
    PERFORMER "Tchaikovsky"
    INDEX 00 31:45:27
    INDEX 01 31:50:00
  TRACK 12 AUDIO
    TITLE "The Seasons – Christmas (December)"
    PERFORMER "Tchaikovsky"
    INDEX 00 34:27:37
    INDEX 01 34:33:02
  TRACK 13 AUDIO
    TITLE "Piano & Orchestra Concert Rondo D-Dur KV 382"
    PERFORMER "Mozart"
    INDEX 00 38:01:01
    INDEX 01 38:04:60
-



Показать сообщения:    

Текущее время: 18-Янв 02:32

Часовой пояс: UTC + 3


Вы не можете начинать темы
Вы не можете отвечать на сообщения
Вы не можете редактировать свои сообщения
Вы не можете удалять свои сообщения
Вы не можете голосовать в опросах
Вы не можете прикреплять файлы к сообщениям
Вы не можете скачивать файлы