(Classical) Claude Debussy — Piano Works 1880 – 1910 (Children's Corner, The Two Arabesques, Preludes Book I) (Peter Schmalfuss) — 1989, APE (image+.cue) lossless


 

[Цитировать]

Piano Works 1880 – 1910 (Children's Corner, The Two Arabesques, Preludes Book I)- Жанр: Classical
Страна-производитель диска: Германия
Год издания диска: 1989
Издатель (лейбл): PILZ (Vienna Master Series)
Номер по каталогу: CD 160 130 P1
CATALOG: 036244613027
Композитор: Claude Debussy
Аудио кодек: ape
Тип рипа: image+.cue
Битрейт аудио: lossless
Продолжительность: 00h59'17"
Источник: собственный рип
Наличие сканов в содержимом раздачи: да-Треклист:
The Two Arabesques L.66 (1880)
01. I. E-Dur [00h03'55"]
02. II. G-Dur [00h03'40"]
03. Suite bergamasque – III. Moonlight [00h05'12"] (1890)
04. Prints L.100 – III. Gardens in the Rain [00h03'53"] (1903)
05. Nocturne Des-Dur [00h06'00"] (Ed. 1907)
Children's Corner L.113 (1908)
06. I. Doctor Gradus ad Parnassum [00h02'30"]
07. II. Jimbo's Lullaby [00h03'20"]
08. III. Serenade for the Doll [00h02'59"]
09. IV. The Snow is Dancing [00h02'36"]
10. V. The Llittle Shepherd [00h02'27"]
11. VI. Golliwogg's Cakewalk [00h02'42"]
Preludes Book I (1910)
12. VII. What the West Wind has seen [00h03'39"]
13. VIII. The Girl with the Flaxen Hair [00h02'36"]
14. X. The Submerged Cathedral [00h07'09"]
15. XII. Minstrels [00h02'18"]
16. Piano Waltz L.121 Ges-Dur «The more than slow» [00h04'21"] (1910)
Piano (Steinway) – Peter Schmalfuss-

EAC log

Exact Audio Copy V0.99 prebeta 5 from 4. May 2009
Отчёт EAC об извлечении, выполненном 13. сентября 2014, 13:09
Debussy / Piano Works Schmalfuss
Дисковод: PIONEER DVD-RW  DVR-111D   Adapter: 1  ID: 0
Режим чтения                 : Достоверность
Использование точного потока : Да
Отключение кэша аудио        : Да
Использование указателей C2  : Нет
Коррекция смещения при чтении                     : 48
Способность читать области Lead-in и Lead-out     : Нет
Заполнение пропущенных сэмплов тишиной            : Да
Удаление блоков с тишиной в начале и конце        : Нет
При вычислениях CRC использовались нулевые сэмплы : Да
Интерфейс                                         : Установленный внешний ASPI-интерфейс
Выходной формат          : Monkey's Audio (без потерь)
Выбранный битрейт        : Normal Lossless Compression
Качество                 : Высокий
Добавление ID3-тэга      : Нет
Утилита сжатия           : C:\Program Files\Monkey's Audio\MAC.exe
TOC извлечённого CD
     Трек |   Старт  | Длительность | Начальный сектор | Конечный сектор
    ---------------------------------------------------------------------
       1  |  0:00.00 |    3:55.02   |           0      |      17626
       2  |  3:55.02 |    3:39.73   |       17627      |      34124
       3  |  7:35.00 |    5:12.00   |       34125      |      57524
       4  | 12:47.00 |    3:53.00   |       57525      |      74999
       5  | 16:40.00 |    6:00.00   |       75000      |     101999
       6  | 22:40.00 |    2:29.45   |      102000      |     113219
       7  | 25:09.45 |    3:19.45   |      113220      |     128189
       8  | 28:29.15 |    2:59.07   |      128190      |     141621
       9  | 31:28.22 |    2:36.13   |      141622      |     153334
      10  | 34:04.35 |    2:27.30   |      153335      |     164389
      11  | 36:31.65 |    2:42.10   |      164390      |     176549
      12  | 39:14.00 |    3:39.00   |      176550      |     192974
      13  | 42:53.00 |    2:36.00   |      192975      |     204674
      14  | 45:29.00 |    7:09.02   |      204675      |     236851
      15  | 52:38.02 |    2:17.73   |      236852      |     247199
      16  | 54:56.00 |    4:21.37   |      247200      |     266811
Характеристики диапазона извлечения и сообщения об ошибках
Выбранный диапазон
     Имя файла D:\Музыка lossless\Debussy Piano Works Schmalfuss\Debussy - Piano Works Schmalfuss.wav
     Пиковый уровень 93.3 %
     Качество диапазона 100.0 %
     CRC теста 8FFD4E58
     CRC копии 8FFD4E58
     Копирование... OK
Ошибок не произошло
AccurateRip: сводка
Трек  1  точное извлечение (доверие 20)  [5EE0AEF6]
Трек  2  точное извлечение (доверие 20)  [5EB6949D]
Трек  3  точное извлечение (доверие 20)  [4C805960]
Трек  4  точное извлечение (доверие 20)  [8D1DD4DE]
Трек  5  точное извлечение (доверие 19)  [92725473]
Трек  6  точное извлечение (доверие 19)  [713FC762]
Трек  7  точное извлечение (доверие 20)  [C4F05FE1]
Трек  8  точное извлечение (доверие 20)  [808F3082]
Трек  9  точное извлечение (доверие 20)  [5C651212]
Трек 10  точное извлечение (доверие 20)  [ECAC8C78]
Трек 11  точное извлечение (доверие 20)  [F07A1BB9]
Трек 12  точное извлечение (доверие 20)  [8670CF38]
Трек 13  точное извлечение (доверие 20)  [7C54D1FC]
Трек 14  точное извлечение (доверие 19)  [9A1806A9]
Трек 15  точное извлечение (доверие 19)  [F9D40930]
Трек 16  точное извлечение (доверие 16)  [EC35885B]
Все треки извлечены точно
Конец отчёта

-

CUE

REM GENRE Classical
REM DATE 1989
REM DISCID D20DE510
REM COMMENT "ExactAudioCopy v0.99pb5"
PERFORMER "Debussy"
TITLE "Piano Works Schmalfuss"
FILE "Debussy - Piano Works Schmalfuss.ape" WAVE
  TRACK 01 AUDIO
    TITLE "The Two Arabesques L.66 – I. E-Dur"
    PERFORMER "Debussy"
    INDEX 01 00:00:00
  TRACK 02 AUDIO
    TITLE "The Two Arabesques L.66 – II. G-Dur"
    PERFORMER "Debussy"
    INDEX 00 03:50:60
    INDEX 01 03:55:02
  TRACK 03 AUDIO
    TITLE "Suite bergamasque – III. Moonlight"
    PERFORMER "Debussy"
    INDEX 00 07:31:12
    INDEX 01 07:35:00
  TRACK 04 AUDIO
    TITLE "Prints L.100 – III. Gardens in the Rain"
    PERFORMER "Debussy"
    INDEX 00 12:43:52
    INDEX 01 12:47:00
  TRACK 05 AUDIO
    TITLE "Nocturne Des-Dur"
    PERFORMER "Debussy"
    INDEX 00 16:36:15
    INDEX 01 16:40:00
  TRACK 06 AUDIO
    TITLE "Children's Corner L.113 – I. Doctor Gradus ad Parnassum"
    PERFORMER "Debussy"
    INDEX 00 22:35:17
    INDEX 01 22:40:00
  TRACK 07 AUDIO
    TITLE "Children's Corner L.113 – II. Jimbo's Lullaby"
    PERFORMER "Debussy"
    INDEX 00 25:06:10
    INDEX 01 25:09:45
  TRACK 08 AUDIO
    TITLE "Children's Corner L.113 – III. Serenade for the Doll"
    PERFORMER "Debussy"
    INDEX 00 28:26:47
    INDEX 01 28:29:15
  TRACK 09 AUDIO
    TITLE "Children's Corner L.113 – IV. The Snow is Dancing"
    PERFORMER "Debussy"
    INDEX 00 31:24:35
    INDEX 01 31:28:22
  TRACK 10 AUDIO
    TITLE "Children's Corner L.113 – V. The Llittle Shepherd"
    PERFORMER "Debussy"
    INDEX 00 34:00:42
    INDEX 01 34:04:35
  TRACK 11 AUDIO
    TITLE "Children's Corner L.113 – VI. Golliwogg's Cakewalk"
    PERFORMER "Debussy"
    INDEX 00 36:29:52
    INDEX 01 36:31:65
  TRACK 12 AUDIO
    TITLE "Preludes Book I – VII. What the West Wind has seen"
    PERFORMER "Debussy"
    INDEX 00 39:08:70
    INDEX 01 39:14:00
  TRACK 13 AUDIO
    TITLE "Preludes Book I – VIII. The Girl with the Flaxen Hair"
    PERFORMER "Debussy"
    INDEX 00 42:49:50
    INDEX 01 42:53:00
  TRACK 14 AUDIO
    TITLE "Preludes Book I – X. The Submerged Cathedral"
    PERFORMER "Debussy"
    INDEX 00 45:25:40
    INDEX 01 45:29:00
  TRACK 15 AUDIO
    TITLE "Preludes Book I – XII. Minstrels"
    PERFORMER "Debussy"
    INDEX 00 52:33:55
    INDEX 01 52:38:02
  TRACK 16 AUDIO
    TITLE "Piano Waltz L.121 Ges-Dur «The more than slow»"
    PERFORMER "Debussy"
    INDEX 00 54:52:10
    INDEX 01 54:56:00
-



Показать сообщения:    

Текущее время: 04-Дек 00:52

Часовой пояс: UTC + 3


Вы не можете начинать темы
Вы не можете отвечать на сообщения
Вы не можете редактировать свои сообщения
Вы не можете удалять свои сообщения
Вы не можете голосовать в опросах
Вы не можете прикреплять файлы к сообщениям
Вы не можете скачивать файлы