(Classical) Franz Liszt - Transcriptions From The Operas Of Wagner, Gounod, Verdi, Mozart (Louis Lortie) - 2013, FLAC (image+.cue) lossless


 

[Цитировать]

Franz Liszt at The Opera (Louis Lortie)
Жанр: Classical
Год издания диска: 2013
Издатель (лейбл): Chandos
Дата записи: 2013
Аудиокодек: FLAC
Тип рипа: image+.cue
Битрейт аудио: lossless
Продолжительность: 76:51
Источник: собственный рип
Наличие сканов в содержимом раздачи: да
Треклист:
1 Ouverture zu Tannhauser, S 422 (1847-49) 15:28
by Richard Wagner (1813-1883)
O du mein holder Abendstern, S 444 (1849) 5:51
Rezitativ und Romanze aus der Oper Tannhauser
by Richard Wagner
2 Lento - Recitativ. Recitativ cantando - 2:34
3 Romanze. Sempre lento ma un poco piu moto - 3:16
4 Spinnerlied aus dem Fliegenden Hollander, S 440 (1860) 5:25
by Richard Wagner
5 Valse de l'opera Faust de Gounod, S 407 (1861) 9:27
(Waltz from the Opera Faust by Gounod)
6 Rigoletto: paraphrase de concert, S 434 (?1855) 7:35
Concert paraphrase of the opera by Giuseppe Verdi (1813-1901)
Reminiscences de Don Juan, S 418 (1841) 15:01
(Reminiscences of Don Juan [Don Giovanni] by Wolfgang Amadeus Mozart (1756-1791)
7 Grave - Andantino - 3:43
8 Duetto. Andantino - Allegretto - 2:51
9 Variation I. [Allegretto] - Adagio - Prestissimo - 3:03
10 Variation II. Tempo guisto - Presto spiritoso - 2:26
11 Presto - Prestissimo - Andante 2:55
Prelude and Liebestod from 'Tristan und Isolde' 18:09
by Richard Wagner
12 Prelude to Tristan und Isolde - 11:18
Transcribed by Louis Lortie
13 Isoldes Liebestod aus Tristan und Isolde, H 447 (1867) 6:50
Исполнители:
Louis Lortie

Лог создания рипа

Exact Audio Copy V1.0 beta 3 from 29. August 2011
EAC extraction logfile from 6. September 2014, 19:16
Louis Lortie / Liszt at the Opera
Used drive : Optiarc DVD RW AD-7260S Adapter: 2 ID: 0
Read mode : SecureUtilize accurate stream : YesDefeat audio cache : YesMake use of C2 pointers : No
Read offset correction : 48Overread into Lead-In and Lead-Out : NoFill up missing offset samples with silence : YesDelete leading and trailing silent blocks : NoNull samples used in CRC calculations : YesUsed interface : Native Win32 interface for Win NT & 2000
Used output format : User Defined EncoderSelected bitrate : 1024 kBit/sQuality : HighAdd ID3 tag : NoCommand line compressor : C:\Program Files (x86)\Exact Audio Copy\FLAC\FLAC.EXEAdditional command line options : -6 -V -T "ARTIST=%artist%" -T "TITLE=%title%" -T "ALBUM=%albumtitle%" -T "DATE=%year%" -T "TRACKNUMBER=%tracknr%" -T "GENRE=%genre%" -T "COMMENT=%comment%" -T "BAND=%albuminterpret%" -T "ALBUMARTIST=%albuminterpret%" -T "COMPOSER=%composer%" %haslyrics%--tag-from-file=LYRICS="%lyricsfile%"%haslyrics% -T "DISCNUMBER=%cdnumber%" -T "TOTALDISCS=%totalcds%" -T "TOTALTRACKS=%numtracks%" %hascover%--picture="%coverfile%"%hascover% %source% -o %dest%
TOC of the extracted CD
Track | Start | Length | Start sector | End sector --------------------------------------------------------- 1 | 0:00.00 | 15:37.28 | 0 | 70302 2 | 15:37.28 | 2:34.63 | 70303 | 81915 3 | 18:12.16 | 3:23.12 | 81916 | 97152 4 | 21:35.28 | 5:32.65 | 97153 | 122117 5 | 27:08.18 | 9:32.60 | 122118 | 165077 6 | 36:41.03 | 7:44.60 | 165078 | 199937 7 | 44:25.63 | 3:43.40 | 199938 | 216702 8 | 48:09.28 | 2:51.65 | 216703 | 229592 9 | 51:01.18 | 3:03.65 | 229593 | 243382 10 | 54:05.08 | 2:26.55 | 243383 | 254387 11 | 56:31.63 | 3:04.10 | 254388 | 268197 12 | 59:35.73 | 11:18.00 | 268198 | 319047 13 | 70:53.73 | 6:53.02 | 319048 | 350024
Range status and errors
Selected range
Filename D:\Liszt at the Opera. Louis Lortie.wav
Peak level 98.9 % Extraction speed 4.6 X Range quality 100.0 % Test CRC DC4D591F Copy CRC DC4D591F Copy OK
No errors occurred
AccurateRip summary
Track 1 accurately ripped (confidence 3) [0364CEE4] (AR v2)Track 2 accurately ripped (confidence 3) [25C1CC8B] (AR v2)Track 3 accurately ripped (confidence 3) [275D0C96] (AR v2)Track 4 accurately ripped (confidence 3) [8D31B2CF] (AR v2)Track 5 accurately ripped (confidence 3) [FCF95550] (AR v2)Track 6 accurately ripped (confidence 3) [85397C19] (AR v2)Track 7 accurately ripped (confidence 3) [EDAB69D7] (AR v2)Track 8 accurately ripped (confidence 3) [00F0B3FC] (AR v2)Track 9 accurately ripped (confidence 3) [7F800541] (AR v2)Track 10 accurately ripped (confidence 3) [2B0C03E7] (AR v2)Track 11 accurately ripped (confidence 3) [6DA2A49D] (AR v2)Track 12 accurately ripped (confidence 3) [CB4F8BA9] (AR v2)Track 13 accurately ripped (confidence 3) [B94FAB96] (AR v2)
All tracks accurately ripped
End of status report
---- CUETools DB Plugin V2.1.3
[CTDB TOCID: hkDsHKp7NLI4aNWj3ms0hHOiCMY-] found, Submit result: hkDsHKp7NLI4aNWj3ms0hHOiCMY- has been confirmed[c2912489] (1/1) Accurately ripped

Содержание индексной карты (.CUE)

REM GENRE ClassicalREM DATE 2013REM DISCID C6123B0DREM COMMENT "ExactAudioCopy v1.0b3"PERFORMER "Louis Lortie"TITLE "Liszt at the Opera"FILE "Liszt at the Opera. Louis Lortie.flac" WAVE TRACK 01 AUDIO TITLE "Tannhauser Overture" PERFORMER "Louis Lortie" INDEX 01 00:00:00 TRACK 02 AUDIO TITLE "O du, mein holder Abendstern - Rezitativ und Romanze aus Tannhauser S444" PERFORMER "Louis Lortie" INDEX 00 15:29:05 INDEX 01 15:37:28 TRACK 03 AUDIO TITLE "O du, mein holder Abendstern - Rezitativ und Romanze aus Tannhauser S444" PERFORMER "Louis Lortie" INDEX 01 18:12:16 TRACK 04 AUDIO TITLE "Spinnerlied aus Der fliegende Hollander S440" PERFORMER "Louis Lortie" INDEX 00 21:28:33 INDEX 01 21:35:28 TRACK 05 AUDIO TITLE "Valse De L'opera Faust S407" PERFORMER "Louis Lortie" INDEX 00 27:00:45 INDEX 01 27:08:18 TRACK 06 AUDIO TITLE "Concert Paraphrase on Rigoletto, S.434 after Verdi's opera" PERFORMER "Louis Lortie" INDEX 00 36:35:35 INDEX 01 36:41:03 TRACK 07 AUDIO TITLE "Reminiscences de 'Don Juan' (after Mozart), S. 418" PERFORMER "Louis Lortie" INDEX 00 44:16:20 INDEX 01 44:25:63 TRACK 08 AUDIO TITLE "Reminiscences de 'Don Juan' (after Mozart), S. 418" PERFORMER "Louis Lortie" INDEX 01 48:09:28 TRACK 09 AUDIO TITLE "Reminiscences de 'Don Juan' (after Mozart), S. 418" PERFORMER "Louis Lortie" INDEX 01 51:01:18 TRACK 10 AUDIO TITLE "Reminiscences de 'Don Juan' (after Mozart), S. 418" PERFORMER "Louis Lortie" INDEX 01 54:05:08 TRACK 11 AUDIO TITLE "Reminiscences de 'Don Juan' (after Mozart), S. 418" PERFORMER "Louis Lortie" INDEX 01 56:31:63 TRACK 12 AUDIO TITLE "Tristan und Isolde: Prelude & Liebestod" PERFORMER "Louis Lortie" INDEX 00 59:27:05 INDEX 01 59:35:73 TRACK 13 AUDIO TITLE "Tristan und Isolde: Prelude & Liebestod" PERFORMER "Louis Lortie" INDEX 01 70:53:73



Показать сообщения:    

Текущее время: 11-Дек 07:15

Часовой пояс: UTC + 3


Вы не можете начинать темы
Вы не можете отвечать на сообщения
Вы не можете редактировать свои сообщения
Вы не можете удалять свои сообщения
Вы не можете голосовать в опросах
Вы не можете прикреплять файлы к сообщениям
Вы не можете скачивать файлы