(Piano Transcription) Сергей Прокофьев - Блудный сын, На Днепре: авторские транскрипции для фортепиано / Sergej Prokofiev - L'Enfant Prodigue, Sur le Borysthene (Мария Иванова) - 2006, FLAC (image+.cue) lossless


 

[Цитировать]

Sergei Prokofiev - L'Enfant Prodigue, Sur le Borysthene: Piano Transcriptions
Жанр: Piano Transcription
Страна-производитель диска: Germany
Год издания диска: 2006
Издатель (лейбл): CPO
Номер по каталогу: 777 093-2
Дата записи: 2003
Аудиокодек: FLAC
Тип рипа: image+.cue
Битрейт аудио: lossless
Продолжительность: 71'41
Источник: скачано с
Наличие сканов в содержимом раздачи: да
Треклист:
Сергей Прокофьев (1891-1953)
1-10. Блудный сын, музыка балета, соч. 46 (1928)
I. Уход: Блудный сын покидает отца и сестер
II. Встреча с товарищами
III. Красавица
IV. Мужской танец
V. В чужих краях: Блудный сын и Красавица
VI. Попойка
VII. Грабеж
VIII. Пробуждение и раскаяние
IX. Дележ добычи (интермедия)
X. Возвращение
11-22. На Днепре, музыка балета, соч.51 (1930)
I. Вступление
II. Встреча
III. Мимическая сцена
IV. Па де де
V. Мужская вариация и финал
VI. Помолвка
VII. Танец жениха
VIII. Танец невесты
XI. Танец мужчин
X. Драка
XI. Мимическая сцена
XII. Эпилог
Исполнители:
Мария Иванова, piano
2003, Sendesaal, Radio Bremen, Germany

Лог создания рипа

Exact Audio Copy V0.99 prebeta 4 from 23. January 2008
EAC extraction logfile from 28. May 2009, 23:42
- / Prokofiev - Ballets - The Piano Transcriptions
Used drive : PIONEER DVD-RW DVR-115D Adapter: 0 ID: 0
Read mode : SecureUtilize accurate stream : YesDefeat audio cache : YesMake use of C2 pointers : No
Read offset correction : 48Overread into Lead-In and Lead-Out : NoFill up missing offset samples with silence : YesDelete leading and trailing silent blocks : NoNull samples used in CRC calculations : NoUsed interface : Installed external ASPI interface
Used output format : User Defined EncoderSelected bitrate : 768 kBit/sQuality : HighAdd ID3 tag : YesCommand line compressor : C:\Programme\Exact Audio Copy\FLAC\FLAC.EXEAdditional command line options : -8 -V -T "ARTIST=%a" -T "TITLE=%t" -T "ALBUM=%g" -T "DATE=%y" -T "TRACKNUMBER=%n" -T "GENRE=%m" -T "COMMENT=%e" %s -o %d
TOC of the extracted CD
Track | Start | Length | Start sector | End sector --------------------------------------------------------- 1 | 0:00.00 | 5:01.62 | 0 | 22636 2 | 5:01.62 | 4:25.68 | 22637 | 42579 3 | 9:27.55 | 4:06.65 | 42580 | 61094 4 | 13:34.45 | 2:32.67 | 61095 | 72561 5 | 16:07.37 | 3:14.23 | 72562 | 87134 6 | 19:21.60 | 2:13.50 | 87135 | 97159 7 | 21:35.35 | 2:17.15 | 97160 | 107449 8 | 23:52.50 | 2:58.20 | 107450 | 120819 9 | 26:50.70 | 2:52.65 | 120820 | 133784 10 | 29:43.60 | 6:32.38 | 133785 | 163222 11 | 36:16.23 | 2:38.00 | 163223 | 175072 12 | 38:54.23 | 2:36.03 | 175073 | 186775 13 | 41:30.26 | 1:35.65 | 186776 | 193965 14 | 43:06.16 | 3:28.57 | 193966 | 209622 15 | 46:34.73 | 3:21.45 | 209623 | 224742 16 | 49:56.43 | 6:02.22 | 224743 | 251914 17 | 55:58.65 | 2:10.41 | 251915 | 261705 18 | 58:09.31 | 3:21.52 | 261706 | 276832 19 | 61:31.08 | 2:50.58 | 276833 | 289640 20 | 64:21.66 | 2:15.05 | 289641 | 299770 21 | 66:36.71 | 3:23.60 | 299771 | 315055 22 | 70:00.56 | 1:43.57 | 315056 | 322837
Range status and errors
Selected range
Filename N:\_Musik\__Lables\CPO\cpo777\cpo777093-2_Prokofiev - Ballets - The Piano Transcriptions (Maria Ivanova - CPO)\Disc\Prokofiev - Ballets - The Piano Transcriptions.wav
Peak level 97.1 % Range quality 99.9 % Test CRC 646187F5 Copy CRC 646187F5 Copy OK
No errors occurred
AccurateRip summary
Track 1 not present in databaseTrack 2 not present in databaseTrack 3 not present in databaseTrack 4 not present in databaseTrack 5 not present in databaseTrack 6 not present in databaseTrack 7 not present in databaseTrack 8 not present in databaseTrack 9 not present in databaseTrack 10 not present in databaseTrack 11 not present in databaseTrack 12 not present in databaseTrack 13 not present in databaseTrack 14 not present in databaseTrack 15 not present in databaseTrack 16 not present in databaseTrack 17 not present in databaseTrack 18 not present in databaseTrack 19 not present in databaseTrack 20 not present in databaseTrack 21 not present in databaseTrack 22 not present in database
None of the tracks are present in the AccurateRip database
End of status report
Доп. информация: В противовес большинству пианистов играющих фортепианные отрывки из "Ромео" и "Золушки", москвичка Мария Иванова записала для лейбла CPO не самые популярные, но не менее великие последние парижские балеты Прокофьева - "Блудный сын" и "На Днепре" целиком, да ещё в труднейшей авторской транскрипции для фортепиано соло.
Эти балеты Прокофьев сочинял в том мелодически углубленном стиле, который все явственнее утверждался в его опусах конца 20х - начала 30х. Их музыка продолжает линию изысканного лиризма в духе новой простоты, намеченной ещё в 3м фортепианном концерте. Типична для балетных партитур Прокофьева манера «блочного» конструирования формы из кратких мотивов-фраз, сменяющихся подобно кинокадрам, контрастная смена эпизодов - динамически упругих либо проникновенно-певучих. Как типичны для композитора эти распевные диатонические мелодии, тонко изукрашенные скупыми подголосками и внутренней модуляционной расцветкой. Рядом с чистой лирикой - мотивы шаловливо танцевальные, отмеченные пикантностью ритмики, легкостью тембров. Здесь — знакомые черты прокофьевского атлетического динамизма; упругие скачки и пассажные взлеты, жестковатая токкатность, обостренная диссонантными созвучиями.



Показать сообщения:    

Текущее время: 07-Дек 19:30

Часовой пояс: UTC + 3


Вы не можете начинать темы
Вы не можете отвечать на сообщения
Вы не можете редактировать свои сообщения
Вы не можете удалять свои сообщения
Вы не можете голосовать в опросах
Вы не можете прикреплять файлы к сообщениям
Вы не можете скачивать файлы