(Classical) Charles-Valentin Alkan — Concerto for solo piano, Troisième (Troisieme) recueil de chants (Marc-André (Andre) Hamelin), 2007, FLAC (tracks+.cue) lossless


 

[Цитировать]

Charles-Valentin Alkan
Concerto for solo piano, Troisième recueil de chants
Жанр: classical
Страна-производитель диска: UK
Год издания диска: 2007
Издатель (лейбл): hyperion
Номер по каталогу: CDA67569
Аудиокодек: FLAC
Тип рипа: tracks+.cue
Битрейт аудио: lossless
Продолжительность: 01:07:37
Источник: скачано с what.cd
Наличие сканов в содержимом раздачи: да
Исполнители: Marc-André Hamelin (piano)
Треклист:
Concerto for solo piano Op. 39 Nos. 8–10
01. Allegro assai (28:21)
02. Adagio (11:54)
03. Allegretto alla barbaresca (9:25)
Troisième recueil de chants Op. 65
04. Vivante (2:46)
05. Espirits follets: Prestissimo (1:40)
06. Canon: Assez vivement (2:33)
07. Tempo giusto (3:42)
08. Horace et Lydie: Vivacissimo (3:15)
09. Barcarolle: Assez lentement (4:01)

Лог создания рипа

Exact Audio Copy V0.99 prebeta 5 from 4. May 2009
EAC extraction logfile from 28. September 2010, 22:42
Charles-Valentin Alkan / Concerto for solo piano and Troisiиme recueil de chants
Used drive : Optiarc DVD RW AD-7200S Adapter: 3 ID: 0
Read mode : SecureUtilize accurate stream : YesDefeat audio cache : YesMake use of C2 pointers : No
Read offset correction : 48Overread into Lead-In and Lead-Out : NoFill up missing offset samples with silence : YesDelete leading and trailing silent blocks : NoNull samples used in CRC calculations : YesUsed interface : Installed external ASPI interfaceGap handling : Appended to previous track
Used output format : User Defined EncoderSelected bitrate : 128 kBit/sQuality : HighAdd ID3 tag : NoCommand line compressor : C:\Program Files\Exact Audio Copy\Flac\flac.exeAdditional command line options : -V -8 -T "artist=%a" -T "title=%t" -T "album=%g" -T "date=%y" -T "tracknumber=%n" -T "genre=%m" %s
TOC of the extracted CD
Track | Start | Length | Start sector | End sector --------------------------------------------------------- 1 | 0:00.00 | 28:21.27 | 0 | 127601 2 | 28:21.27 | 11:54.16 | 127602 | 181167 3 | 40:15.43 | 9:24.52 | 181168 | 223519 4 | 49:40.20 | 2:46.10 | 223520 | 235979 5 | 52:26.30 | 1:39.53 | 235980 | 243457 6 | 54:06.08 | 2:33.26 | 243458 | 254958 7 | 56:39.34 | 3:41.72 | 254959 | 271605 8 | 60:21.31 | 3:14.67 | 271606 | 286222 9 | 63:36.23 | 4:00.56 | 286223 | 304278
Track 1
Filename Z:\home\\Rips\Etude for piano in G sharp minor Op. 39 No. 8 ''Concerto for solo piano'' - III Allegretto alla barberesca.wav
Pre-gap length 0:00:02.00
Peak level 91.8 % Track quality 100.0 % Test CRC F25F7FB7 Copy CRC F25F7FB7 Accurately ripped (confidence 26) [DBCFB210] Copy OK
Track 2
Filename Z:\home\\Rips\Etude for piano in C sharp minor Op. 39 No. 8 ''Concerto for solo piano'' - II Adagio.wav
Pre-gap length 0:00:07.16
Peak level 89.8 % Track quality 100.0 % Test CRC B77B3695 Copy CRC B77B3695 Accurately ripped (confidence 26) [CD7CFA71] Copy OK
Track 3
Filename Z:\home\\Rips\Etude for piano in F sharp minor Op. 39 No. 8 ''Concerto for solo piano'' - III Allegretto alla barberesca.wav
Pre-gap length 0:00:02.41
Peak level 100.0 % Track quality 100.0 % Test CRC A74BED80 Copy CRC A74BED80 Accurately ripped (confidence 26) [5E413D0E] Copy OK
Track 4
Filename Z:\home\\Rips\Troisiиme recueil de chants for piano Op. 65 - I Vivante.wav
Pre-gap length 0:00:06.25
Peak level 63.7 % Track quality 100.0 % Test CRC D38A5B3A Copy CRC D38A5B3A Accurately ripped (confidence 26) [7036E64B] Copy OK
Track 5
Filename Z:\home\\Rips\Troisiиme recueil de chants for piano Op. 65 - II Espirits follets (Prestissimo).wav
Pre-gap length 0:00:01.11
Peak level 39.7 % Track quality 100.0 % Test CRC BBA0228C Copy CRC BBA0228C Accurately ripped (confidence 26) [358B4321] Copy OK
Track 6
Filename Z:\home\\Rips\Troisiиme recueil de chants for piano Op. 65 - III Canon (Assez vivement).wav
Pre-gap length 0:00:00.45
Peak level 42.8 % Track quality 100.0 % Test CRC 4F7E0737 Copy CRC 4F7E0737 Accurately ripped (confidence 26) [DA48E1F8] Copy OK
Track 7
Filename Z:\home\\Rips\Troisiиme recueil de chants for piano Op. 65 - IV Tempo giusto.wav
Pre-gap length 0:00:00.63
Peak level 96.1 % Track quality 100.0 % Test CRC F472CA2D Copy CRC F472CA2D Accurately ripped (confidence 26) [F0F5C639] Copy OK
Track 8
Filename Z:\home\\Rips\Troisiиme recueil de chants for piano Op. 65 - V Horace et Lydie (Vivacissimo).wav
Pre-gap length 0:00:00.21
Peak level 100.0 % Track quality 100.0 % Test CRC 7ED4F31A Copy CRC 7ED4F31A Accurately ripped (confidence 26) [2E4CE633] Copy OK
Track 9
Filename Z:\home\\Rips\Troisiиme recueil de chants for piano Op. 65 - VI Barcarolle (Assez lentement).wav
Pre-gap length 0:00:00.15
Peak level 23.3 % Track quality 99.9 % Test CRC 82CA6CBC Copy CRC 82CA6CBC Accurately ripped (confidence 25) [726AB627] Copy OK
All tracks accurately ripped
No errors occurred
End of status report

Содержание индексной карты (.CUE)

REM DATE 2007REM DISCID 7B0FD909REM COMMENT "ExactAudioCopy v0.99pb5"PERFORMER "Marc-André Hamelin"TITLE "Concerto for solo piano, Troisième recueil de chants"FILE "01. Allegro assai.wav" WAVE TRACK 01 AUDIO TITLE "Allegro assai" PERFORMER "Marc-André Hamelin" INDEX 01 00:00:00 TRACK 02 AUDIO TITLE "Adagio" PERFORMER "Marc-André Hamelin" INDEX 00 28:14:11FILE "02. Adagio.wav" WAVE INDEX 01 00:00:00 TRACK 03 AUDIO TITLE "Allegretto alla barbaresca" PERFORMER "Marc-André Hamelin" INDEX 00 11:51:50FILE "03. Allegretto alla barbaresca.wav" WAVE INDEX 01 00:00:00 TRACK 04 AUDIO TITLE "Vivante" PERFORMER "Marc-André Hamelin" INDEX 00 09:18:27FILE "04. Vivante.wav" WAVE INDEX 01 00:00:00 TRACK 05 AUDIO TITLE "Espirits follets: Prestissimo" PERFORMER "Marc-André Hamelin" INDEX 00 02:44:74FILE "05. Espirits follets_ Prestissimo.wav" WAVE INDEX 01 00:00:00 TRACK 06 AUDIO TITLE "Canon: Assez vivement" PERFORMER "Marc-André Hamelin" INDEX 00 01:39:08FILE "06. Canon_ Assez vivement.wav" WAVE INDEX 01 00:00:00 TRACK 07 AUDIO TITLE "Tempo giusto" PERFORMER "Marc-André Hamelin" INDEX 00 02:32:38FILE "07. Tempo giusto.wav" WAVE INDEX 01 00:00:00 TRACK 08 AUDIO TITLE "Horace et Lydie: Vivacissimo" PERFORMER "Marc-André Hamelin" INDEX 00 03:41:51FILE "08. Horace et Lydie_ Vivacissimo.wav" WAVE INDEX 01 00:00:00 TRACK 09 AUDIO TITLE "Barcarolle: Assez lentement" PERFORMER "Marc-André Hamelin" INDEX 00 03:14:52FILE "09. Barcarolle_ Assez lentement.wav" WAVE INDEX 01 00:00:00



Показать сообщения:    

Текущее время: 08-Дек 03:15

Часовой пояс: UTC + 3


Вы не можете начинать темы
Вы не можете отвечать на сообщения
Вы не можете редактировать свои сообщения
Вы не можете удалять свои сообщения
Вы не можете голосовать в опросах
Вы не можете прикреплять файлы к сообщениям
Вы не можете скачивать файлы