(Classical) Орган храма Матери Божьей Ангельской - Играет Георгий Курков (Bach, Surzynski, Albinoni, Ritter, Nowowiejski, Boellmann, Скорик) - 2007, FLAC (image+.cue) lossless


 

[Цитировать]

Орган храма Матери Божьей Ангельской - Играет Георгий Курков
Жанр: Classical
Страна-производитель диска: Украина
Год издания диска: 2007
Издатель (лейбл): Clara studio
Аудиокодек: FLAC
Тип рипа: image+.cue
Битрейт аудио: lossless
Продолжительность: 69.27
Источник: собственный рип
Наличие сканов в содержимом раздачи: да
Треклист:
1. Иоганн Себастьян Бах - Токката и фуга d-moll BWV 565
2. М.Суржински - импровизация на тему "Святый Боже" Op.38
3. Томазо Альбинони - Адажио g-moll
4. А.Г.Риттер - Соната d-moll op.11
5. Ф.Нововейски - Польская фантазия "Пастушка на Вавеле" op.9 №1
6. Л.Бьольманн - Готическая сюита
а) интродукция - хорал
б) готический менует
в) молитва
г) токката
7. М.Скорик - Мелодия
Исполнители:
Орган - заслуженный деятель искусств Украины - Георгий Курков

Лог создания рипа

Exact Audio Copy V1.0 beta 3 from 29. August 2011
Отчёт EAC об извлечении, выполненном 20. июля 2014, 15:20
Георгий Курков / Орган храма Матери Божьей Ангельской - Играет Георгий Курков
Дисковод: HL-DT-STDVDRAM GH22NS50 Adapter: 0 ID: 2
Режим чтения : ДостоверностьИспользование точного потока : ДаОтключение кэша аудио : ДаИспользование указателей C2 : Нет
Коррекция смещения при чтении : 667Способность читать области Lead-in и Lead-out : НетЗаполнение пропущенных сэмплов тишиной : ДаУдаление блоков с тишиной в начале и конце : НетПри вычислениях CRC использовались нулевые сэмплы : ДаИнтерфейс : Встроенный Win32-интерфейс для Win NT/2000
Выходной формат : Пользовательский кодировщикВыбранный битрейт : 128 kBit/sКачество : ВысокийДобавление ID3-тега : НетУтилита сжатия : C:\Program Files (x86)\Exact Audio Copy\Flac\flac.exeДополнительные параметры : -V -8 -T "Date=%year%" -T "Genre=%genre%" %source%
TOC извлечённого CD
Трек | Старт | Длительность | Начальный сектор | Конечный сектор --------------------------------------------------------------------- 1 | 0:00.00 | 9:24.24 | 0 | 42323 2 | 9:24.24 | 11:15.67 | 42324 | 93015 3 | 20:40.16 | 8:21.55 | 93016 | 130645 4 | 29:01.71 | 16:56.01 | 130646 | 206846 5 | 45:57.72 | 7:30.23 | 206847 | 240619 6 | 53:28.20 | 2:09.11 | 240620 | 250305 7 | 55:37.31 | 3:14.24 | 250306 | 264879 8 | 58:51.55 | 3:50.45 | 264880 | 282174 9 | 62:42.25 | 3:33.05 | 282175 | 298154 10 | 66:15.30 | 3:34.46 | 298155 | 314250
Характеристики диапазона извлечения и сообщения об ошибках
Выбранный диапазон
Имя файла C:\Users\house\Desktop\Новая папка\Георгий Курков - Орган храма Матери Божьей Ангельской - Играет Георгий Курков.wav
Копирование прерваноКонец отчёта
------------------------------------------------------------
Exact Audio Copy V1.0 beta 3 from 29. August 2011Отчёт EAC об извлечении, выполненном 20. июля 2014, 15:41Георгий Курков / Орган храма Матери Божьей Ангельской - Играет Георгий КурковДисковод: HL-DT-STDVDRAM GH22NS50 Adapter: 0 ID: 2Режим чтения : ДостоверностьИспользование точного потока : ДаОтключение кэша аудио : ДаИспользование указателей C2 : НетКоррекция смещения при чтении : 667Способность читать области Lead-in и Lead-out : НетЗаполнение пропущенных сэмплов тишиной : ДаУдаление блоков с тишиной в начале и конце : НетПри вычислениях CRC использовались нулевые сэмплы : ДаИнтерфейс : Встроенный Win32-интерфейс для Win NT/2000Выходной формат : Пользовательский кодировщикВыбранный битрейт : 128 kBit/sКачество : ВысокийДобавление ID3-тега : НетУтилита сжатия : C:\Program Files (x86)\Exact Audio Copy\Flac\flac.exeДополнительные параметры : -V -8 -T "Date=%year%" -T "Genre=%genre%" %source%TOC извлечённого CD Трек | Старт | Длительность | Начальный сектор | Конечный сектор --------------------------------------------------------------------- 1 | 0:00.00 | 9:24.24 | 0 | 42323 2 | 9:24.24 | 11:15.67 | 42324 | 93015 3 | 20:40.16 | 8:21.55 | 93016 | 130645 4 | 29:01.71 | 16:56.01 | 130646 | 206846 5 | 45:57.72 | 7:30.23 | 206847 | 240619 6 | 53:28.20 | 2:09.11 | 240620 | 250305 7 | 55:37.31 | 3:14.24 | 250306 | 264879 8 | 58:51.55 | 3:50.45 | 264880 | 282174 9 | 62:42.25 | 3:33.05 | 282175 | 298154 10 | 66:15.30 | 3:34.46 | 298155 | 314250Характеристики диапазона извлечения и сообщения об ошибкахВыбранный диапазон Имя файла C:\Users\house\Desktop\Новая папка\Георгий Курков - Орган храма Матери Божьей Ангельской - Играет Георгий Курков.wav Пиковый уровень 98.7 % Скорость извлечения 1.8 X Качество диапазона 99.8 % CRC теста E2BA7C0D CRC копии E2BA7C0D Копирование... OKОшибок не произошлоКонец отчёта---- CUETools DB Plugin V2.1.3[CTDB TOCID: eWZ8AJVM8svI8b.BAsr68niVR6A-] disk not present in database, Submit result: eWZ8AJVM8svI8b.BAsr78niVR6A- has been uploaded
==== Контрольная сумма отчёта FA01E6E8529CD3346DD1A58BE2092C9FCFEC01D58E4E7F286007DD614035A8BA ====

Содержание индексной карты (.CUE)

REM GENRE ClassicalREM DATE 2007REM DISCID 96105E0AREM COMMENT "ExactAudioCopy v1.0b3"PERFORMER "Георгий Курков"TITLE "Орган храма Матери Божьей Ангельской - Играет Георгий Курков"FILE "Георгий Курков - Орган храма Матери Божьей Ангельской - Играет Георгий Курков.flac" WAVE TRACK 01 AUDIO TITLE "Й.С.Бах - Токката и фуга d-moll BWV 565" PERFORMER "Георгий Курков" INDEX 01 00:00:00 TRACK 02 AUDIO TITLE "М.Суржински - импровизация на тему 'Святый Боже' Op.38" PERFORMER "Георгий Курков" INDEX 01 09:24:24 TRACK 03 AUDIO TITLE " Т.Альбинони - Адажио g-moll" PERFORMER "Георгий Курков" INDEX 01 20:40:16 TRACK 04 AUDIO TITLE " А.Г.Риттер - Соната d-moll op.11" PERFORMER "Георгий Курков" INDEX 01 29:01:71 TRACK 05 AUDIO TITLE "Ф.Нововейски - Польская фантазия 'Пастушка на Вавеле' op.9 №1" PERFORMER "Георгий Курков" INDEX 01 45:57:72 TRACK 06 AUDIO TITLE "Л.Бьольманн - Готическая сюита а) интродукция - хорал" PERFORMER "Георгий Курков" INDEX 01 53:28:20 TRACK 07 AUDIO TITLE "Л.Бьольманн - Готическая сюита б) готический менует" PERFORMER "Георгий Курков" INDEX 01 55:37:31 TRACK 08 AUDIO TITLE "Л.Бьольманн - Готическая сюита в) молитва" PERFORMER "Георгий Курков" INDEX 01 58:51:55 TRACK 09 AUDIO TITLE "Л.Бьольманн - Готическая сюита г) токката" PERFORMER "Георгий Курков" INDEX 01 62:42:25 TRACK 10 AUDIO TITLE "М.Скорик - Мелодия" PERFORMER "Георгий Курков" INDEX 01 66:15:30
Доп. информация:

Георгий Курков

Георгий Курков окончил Киевскую консерваторию им. П. И. Чайковского и ассистентуру-стажировку Ленинградской консерватории им. Н. А. Римского-Корсакова. Его профессорами были Т. П. Кравченко - рояль, Н. И. Оксентян - орган и С. М. Хентова - история и теория пианизма.
Много концертировал как пианист, органист и ансамблист в Украине и за рубежом.
Заслуженный деятель искусств Украины (1995). Концертную практику совмещает с преподавательской деятельностью. Г. Курков - доцент Винницкого педагогического университета им. М. Коцюбинского. Также он является автором перевода книги выдающегося австрийского дирижера Н. Харнонкурта "Музыка как язык звуков" (Сумы, 2002).
Г. Курков является основателем, художественным руководителем и дирижером Винницкого камерного оркестра "Арката", с которым осуществил множество концертных гастролей.
С инициативы и при участии Г. Куркова в Виннице были проведены фестивали: "Бах и его эпоха" (1995), "Амадеус" (1996), "Арката плюс" (1997), "Шопениана-век XX" (1999), "Бетховенские ассамблеи" (2000) и ставший уже традиционным фестиваль "П. И. Чайковский и Н. Ф. фон Мекк".
Георгий Курков также является органистом храма Матери Божьей Ангельской в Виннице и музыкальным директором органного фестиваля "Музыка в монастырских стенах", который с 1999 года ежегодно проходит в историческом центре Винницы.



Показать сообщения:    

Текущее время: 10-Дек 13:53

Часовой пояс: UTC + 3


Вы не можете начинать темы
Вы не можете отвечать на сообщения
Вы не можете редактировать свои сообщения
Вы не можете удалять свои сообщения
Вы не можете голосовать в опросах
Вы не можете прикреплять файлы к сообщениям
Вы не можете скачивать файлы