(Classical) Erwin Schulhoff - Partita; Susi; Suite No. 3 for the left hand; Variationen und Fugato: Piano Works, Vol. 1 (Caroline Weichert) - 2012, FLAC (image+.cue) lossless


 

[Цитировать]

Erwin Schulhoff - Piano Works, Vol. 1 (Caroline Weichert)
Жанр: Classical
Год издания диска: 2012
Издатель (лейбл): GrandPiano
Номер по каталогу: GP604
Дата записи:
Аудиокодек: FLAC
Тип рипа: image+.cue
Битрейт аудио: lossless
Продолжительность: 59:57
Источник: скачано из сети
Наличие сканов в содержимом раздачи: да
Треклист:
Erwin Schulhoff (1894-1942)
Partita
01. I. Tempo di Fox [0:01:57.58]
02. II. Jazz-like [0:00:57.17]
03. III. Tango-Rag [0:02:19.68]
04. IV. Tempo di Fox a la Hawai [0:01:43.00]
05. V. Boston [0:05:14.60]
06. VI. Tempo di Rag [0:01:53.42]
07. VII. Tango [0:03:31.25]
08. VIII. Shimmy-Jazz [0:02:08.18]
09. Susi (version for piano solo) [0:03:52.09]
Suite No. 3 for the left hand
10. I. Preludio [0:03:26.40]
11. II. Air [0:03:06.18]
12. III. Zingara [0:02:15.45]
13. IV. Improvisazione [0:03:53.42]
14. V. Finale [0:02:28.00]
Variationen und Fugato uber ein eigenes dorisches Thema, Op. 10
15. Thema [0:01:44.26]
16. Variation 1 [0:00:39.39]
17. Variation 2 [0:00:47.73]
18. Variation 3 [0:00:34.13]
19. Variation 4 [0:00:42.68]
20. Variation 5 [0:02:25.02]
21. Variation 6 [0:00:57.67]
22. Variation 7 [0:00:51.13]
23. Variation 8 [0:00:56.12]
24. Variation 9 [0:00:32.70]
25. Variation 10 [0:01:15.67]
26. Variation 11 [0:00:44.27]
27. Variation 12 [0:00:39.65]
28. Variation 13 [0:01:12.70]
29. Variation 14 [0:01:32.27]
30. Variation 15 [0:02:15.26]
31. Finale: Fugato [0:03:17.11]
Исполнители:
Caroline Weichert - piano

LOG EAC

Exact Audio Copy V1.0 beta 3 from 29. August 2011
EAC extraction logfile from 27. June 2014, 16:29
Erwin Schulhoff / Piano Works, Vol. 1 (Weichert)
Used drive : TSSTcorpCDDVDW SH-S223C Adapter: 2 ID: 1
Read mode : SecureUtilize accurate stream : YesDefeat audio cache : YesMake use of C2 pointers : No
Read offset correction : 697Overread into Lead-In and Lead-Out : NoFill up missing offset samples with silence : YesDelete leading and trailing silent blocks : NoNull samples used in CRC calculations : YesUsed interface : Native Win32 interface for Win NT & 2000
Used output format : User Defined EncoderSelected bitrate : 1024 kBit/sQuality : HighAdd ID3 tag : NoCommand line compressor : C:\Program Files (x86)\Exact Audio Copy\FLAC\FLAC.EXEAdditional command line options : -V -0 -T "COMMENT=Ripped by Tapaz9" -T "artist=%artist%" -T "title=%title%" -T "album=%albumtitle%" -T "date=%year%" -T "tracknumber=%tracknr%" -T "genre=%genre%" %source%
TOC of the extracted CD
Track | Start | Length | Start sector | End sector---------------------------------------------------------1 | 0:00.00 | 1:57.58 | 0 | 88322 | 1:57.58 | 0:57.17 | 8833 | 131243 | 2:55.00 | 2:19.68 | 13125 | 236174 | 5:14.68 | 1:43.00 | 23618 | 313425 | 6:57.68 | 5:14.60 | 31343 | 549526 | 12:12.53 | 1:53.42 | 54953 | 634697 | 14:06.20 | 3:31.25 | 63470 | 793198 | 17:37.45 | 2:08.18 | 79320 | 889379 | 19:45.63 | 3:52.09 | 88938 | 10634610 | 23:37.72 | 3:26.40 | 106347 | 12183611 | 27:04.37 | 3:06.18 | 121837 | 13580412 | 30:10.55 | 2:15.45 | 135805 | 14597413 | 32:26.25 | 3:53.42 | 145975 | 16349114 | 36:19.67 | 2:28.00 | 163492 | 17459115 | 38:47.67 | 1:44.26 | 174592 | 18241716 | 40:32.18 | 0:39.39 | 182418 | 18538117 | 41:11.57 | 0:47.73 | 185382 | 18897918 | 41:59.55 | 0:34.13 | 188980 | 19154219 | 42:33.68 | 0:42.68 | 191543 | 19476020 | 43:16.61 | 2:25.02 | 194761 | 20563721 | 45:41.63 | 0:57.67 | 205638 | 20997922 | 46:39.55 | 0:51.13 | 209980 | 21381723 | 47:30.68 | 0:56.12 | 213818 | 21802924 | 48:27.05 | 0:32.70 | 218030 | 22049925 | 49:00.00 | 1:15.67 | 220500 | 22619126 | 50:15.67 | 0:44.27 | 226192 | 22951827 | 51:00.19 | 0:39.65 | 229519 | 23250828 | 51:40.09 | 1:12.70 | 232509 | 23797829 | 52:53.04 | 1:32.27 | 237979 | 24490530 | 54:25.31 | 2:15.26 | 244906 | 25505631 | 56:40.57 | 3:17.11 | 255057 | 269842
Range status and errors
Selected range
Filename F:\Musique\Schulhoff, Erwin\Schulhoff_PianoMusicVol1\Erwin Schulhoff - Piano Works, Vol. 1 (Weichert).wav
Peak level 90.1 %Extraction speed 14.4 XRange quality 99.9 %Copy CRC 8E3EDF5ACopy OK
No errors occurred
End of status report
==== Log checksum A72E1A0C7A4B4A49B2297893A7339C6A09091FF566F982FD0366435C864D9175 ====



Показать сообщения:    

Текущее время: 08-Дек 01:20

Часовой пояс: UTC + 3


Вы не можете начинать темы
Вы не можете отвечать на сообщения
Вы не можете редактировать свои сообщения
Вы не можете удалять свои сообщения
Вы не можете голосовать в опросах
Вы не можете прикреплять файлы к сообщениям
Вы не можете скачивать файлы