(Classical, contemporary) Toccata - Finnish Guitar Music: Bergman, Hartikainen, Yli-Salomaki, Vilagi, Zinovjev, Kaipainen - Otto Tolonen - 2013, FLAC (image+.cue) lossless


 

[Цитировать]

Toccata - Finnish Guitar Music: Bergman, Hartikainen, Yli-Salomäki, Vilagi, Zinovjev, Kaipainen - Otto Tolonen
Жанр: Classical, contemporary
Страна-производитель диска: Finland
Год издания диска: 2013
Издатель (лейбл): SibaRecords
Дата записи: 2013
Аудиокодек: FLAC
Тип рипа: image+.cue
Битрейт аудио: lossless
Продолжительность: 48:32
Источник: собственный рип
Наличие сканов в содержимом раздачи: да
Треклист:
Erik Bergman (1911-2006)
[1]-[3] Suite pour Guitare
Jarkko Hartikainen (b.1981)
[4] alone
Aki Yli-Salomäki (b.1972)
[5] Odota
Adam Vilagi (b.1977)
[6] The Threatened Assassin...
Sauli Zinovjev (b.1988)
[7] Elegietta
Jouni Kaipainen
[8] Tenebrae
World premiere recordings
Исполнители:
Otto Tolonen guitar

Лог создания рипа

Exact Audio Copy V1.0 beta 3 from 29. August 2011
EAC extraction logfile from 6. May 2014, 17:02
Otto Tolonen / Toccata - Finnish Guitar Music
Used drive : HL-DT-STDVDRRW GWA-4164B Adapter: 5 ID: 0
Read mode : SecureUtilize accurate stream : YesDefeat audio cache : YesMake use of C2 pointers : No
Read offset correction : 102Overread into Lead-In and Lead-Out : NoFill up missing offset samples with silence : YesDelete leading and trailing silent blocks : NoNull samples used in CRC calculations : YesUsed interface : Native Win32 interface for Win NT & 2000
Used output format : User Defined EncoderSelected bitrate : 896 kBit/sQuality : HighAdd ID3 tag : NoCommand line compressor : C:\Program Files\Exact Audio Copy\FLAC\FLAC.EXEAdditional command line options : -V -8 %source%
TOC of the extracted CD
Track | Start | Length | Start sector | End sector --------------------------------------------------------- 1 | 0:00.00 | 4:10.10 | 0 | 18759 2 | 4:10.10 | 4:04.21 | 18760 | 37080 3 | 8:14.31 | 2:21.20 | 37081 | 47675 4 | 10:35.51 | 9:06.31 | 47676 | 88656 5 | 19:42.07 | 4:38.71 | 88657 | 109577 6 | 24:21.03 | 8:41.15 | 109578 | 148667 7 | 33:02.18 | 1:53.26 | 148668 | 157168 8 | 34:55.44 | 13:36.49 | 157169 | 218417
Range status and errors
Selected range
Filename D:\temp\Music\Toccata - Finnish Guitar Music\Toccata - Finnish Guitar Music.wav
Peak level 100.0 % Extraction speed 2.6 X Range quality 100.0 % Test CRC BFD50851 Copy CRC BFD50851 Copy OK
No errors occurred
AccurateRip summary
Track 1 accurately ripped (confidence 1) [710EDA90] (AR v2)Track 2 accurately ripped (confidence 1) [5F23B7E1] (AR v2)Track 3 accurately ripped (confidence 1) [5537EF3F] (AR v2)Track 4 accurately ripped (confidence 1) [71C09587] (AR v2)Track 5 accurately ripped (confidence 1) [9E6F8352] (AR v2)Track 6 accurately ripped (confidence 1) [7DD7712D] (AR v2)Track 7 accurately ripped (confidence 1) [D63AF35D] (AR v2)Track 8 accurately ripped (confidence 1) [179DDF08] (AR v2)
All tracks accurately ripped
End of status report
==== Log checksum B54D01CC900AAAF027A176AB71E6D6218E3F5DEB6C50B7F2DED0AD15870C4013 ====



Показать сообщения:    

Текущее время: 08-Дек 03:15

Часовой пояс: UTC + 3


Вы не можете начинать темы
Вы не можете отвечать на сообщения
Вы не можете редактировать свои сообщения
Вы не можете удалять свои сообщения
Вы не можете голосовать в опросах
Вы не можете прикреплять файлы к сообщениям
Вы не можете скачивать файлы