(Four-Hand Piano) Dvorak - Four-Hand Piano Music II: Slawische Tanze op. 46 & 72 - Kohn, Matthies - 1996, FLAC (image+.cue) lossless


 

[Цитировать]

Antonin Dvorak - Four-Hand Piano Music II: Slawische Tanze op. 46 & 72 - Kohn, Matthies
Жанр: Four-Hand Piano
Страна-производитель диска: EU
Год издания диска: 1996
Издатель (лейбл): Naxos
Номер по каталогу: 8.553138
Дата записи: 1995
Аудиокодек: FLAC
Тип рипа: image+.cue
Битрейт аудио: lossless
Продолжительность: 1:12:13
Источник: собственный рип
Наличие сканов в содержимом раздачи: да
Треклист:
[01]-[08] Slawische Tänze op. 46
[09]-[16] Slawische Tänze op. 72
Исполнители:
Christian Köhn & Silke-Thora Matthies, piano

Лог создания рипа

Exact Audio Copy V1.0 beta 3 from 29. August 2011
EAC extraction logfile from 8. August 2012, 17:23
Antonin Dvorak / Four-Hand Piano Music, Vol.2, Slavonic Dances 1-16
Used drive : HL-DT-STRW/DVD GCC-T10N Adapter: 1 ID: 0
Read mode : SecureUtilize accurate stream : YesDefeat audio cache : YesMake use of C2 pointers : No
Read offset correction : 102Overread into Lead-In and Lead-Out : NoFill up missing offset samples with silence : YesDelete leading and trailing silent blocks : NoNull samples used in CRC calculations : YesUsed interface : Native Win32 interface for Win NT & 2000
Used output format : User Defined EncoderSelected bitrate : 128 kBit/sQuality : HighAdd ID3 tag : NoCommand line compressor : C:\Program Files\Exact Audio Copy\Flac\flac.exeAdditional command line options : -8 -V -T "ARTIST=%artist%" -T "TITLE=%title%" -T "ALBUM=%albumtitle%" -T "DATE=%year%" -T "TRACKNUMBER=%tracknr%" -T "GENRE=%genre%" -T "PERFORMER=%albuminterpret%" -T "COMPOSER=%composer%" %haslyrics%--tag-from-file=LYRICS="%lyricsfile%"%haslyrics% -T "ALBUMARTIST=%albumartist%" -T "DISCNUMBER=%cdnumber%" -T "TOTALDISCS=%totalcds%" -T "TOTALTRACKS=%numtracks%" -T "COMMENT=%comment%" %source% -o %dest%
TOC of the extracted CD
Track | Start | Length | Start sector | End sector --------------------------------------------------------- 1 | 0:00.00 | 4:04.12 | 0 | 18311 2 | 4:04.12 | 4:55.50 | 18312 | 40486 3 | 8:59.62 | 4:32.05 | 40487 | 60891 4 | 13:31.67 | 6:41.68 | 60892 | 91034 5 | 20:13.60 | 3:01.55 | 91035 | 104664 6 | 23:15.40 | 5:01.14 | 104665 | 127253 7 | 28:16.54 | 3:01.43 | 127254 | 140871 8 | 31:18.22 | 4:18.68 | 140872 | 160289 9 | 35:37.15 | 4:28.30 | 160290 | 180419 10 | 40:05.45 | 5:27.35 | 180420 | 204979 11 | 45:33.05 | 3:18.57 | 204980 | 219886 12 | 48:51.62 | 6:05.15 | 219887 | 247276 13 | 54:57.02 | 3:03.15 | 247277 | 261016 14 | 58:00.17 | 3:33.15 | 261017 | 277006 15 | 61:33.32 | 3:17.03 | 277007 | 291784 16 | 64:50.35 | 7:23.32 | 291785 | 325041
Range status and errors
Selected range
Filename C:\Documents and Settings\Мария\Рабочий стол\TEMP\Dvorak 2\Antonin Dvorak - Four-Hand Piano Music, Vol.2, Slavonic Dances 1-16.wav
Peak level 99.8 % Extraction speed 4.5 X Range quality 100.0 % Copy CRC 73480F49 Copy OK
No errors occurred
AccurateRip summary
Track 1 accurately ripped (confidence 2) [8A738057] (AR v1)Track 2 accurately ripped (confidence 2) [EB2AE622] (AR v1)Track 3 accurately ripped (confidence 2) [FA07110E] (AR v1)Track 4 accurately ripped (confidence 2) [04FC3C23] (AR v1)Track 5 accurately ripped (confidence 2) [B75DF99A] (AR v1)Track 6 accurately ripped (confidence 2) [2A24BC60] (AR v1)Track 7 accurately ripped (confidence 2) [053608F9] (AR v1)Track 8 accurately ripped (confidence 2) [AE0B1B61] (AR v1)Track 9 accurately ripped (confidence 2) [83143A6B] (AR v1)Track 10 accurately ripped (confidence 2) [DE9147C1] (AR v1)Track 11 accurately ripped (confidence 2) [E521FFC5] (AR v1)Track 12 accurately ripped (confidence 2) [38CF6177] (AR v1)Track 13 accurately ripped (confidence 2) [6667368E] (AR v1)Track 14 accurately ripped (confidence 2) [18B361EC] (AR v1)Track 15 accurately ripped (confidence 2) [2D2CA6F1] (AR v1)Track 16 accurately ripped (confidence 2) [142C22D3] (AR v1)
All tracks accurately ripped
End of status report
==== Log checksum 4B2D16C3D048D410252B649486263F59EA5F3E8E80C6F47A0AAFA5644C2542FD ====



Показать сообщения:    

Текущее время: 10-Дек 11:50

Часовой пояс: UTC + 3


Вы не можете начинать темы
Вы не можете отвечать на сообщения
Вы не можете редактировать свои сообщения
Вы не можете удалять свои сообщения
Вы не можете голосовать в опросах
Вы не можете прикреплять файлы к сообщениям
Вы не можете скачивать файлы