(piano) Isaac Albeniz - Iberia,Libros 1&2, Espana, op.165 (Daniel Barenboim) - 2001, FLAC (image+.cue) lossless


 

[Цитировать]

Isaac Albeniz - Iberia,Libros 1&2, Espana, op.165 (Daniel Barenboim)
Жанр: piano
Страна-производитель диска: Germany
Год издания диска: 2001
Издатель (лейбл): Teldec
Номер по каталогу: 8573-81703-2
Дата записи: 2001
Аудиокодек: FLAC
Тип рипа: image+.cue
Битрейт аудио: lossless
Источник: скачано с
Наличие сканов в содержимом раздачи: да
Треклист:
Isaac Albeniz -
1-6 Iberia, Libros 1&2
7-12 Espana, op.165
Исполнители:
Daniel Barenboim

Лог создания рипа

Exact Audio Copy V0.99 prebeta 5 from 4. May 2009
EAC extraction logfile from 25. November 2009, 21:31
Unknown Artist / Unknown Title
Used drive : LITE-ON DVDRW SOHW-1633S Adapter: 0 ID: 0
Read mode : SecureUtilize accurate stream : YesDefeat audio cache : YesMake use of C2 pointers : Yes
Read offset correction : 12Overread into Lead-In and Lead-Out : NoFill up missing offset samples with silence : YesDelete leading and trailing silent blocks : NoNull samples used in CRC calculations : NoUsed interface : Native Win32 interface for Win NT & 2000
Used output format : Internal WAV RoutinesSample format : 44.100 Hz; 16 Bit; Stereo
TOC of the extracted CD
Track | Start | Length | Start sector | End sector --------------------------------------------------------- 1 | 0:00.00 | 6:15.12 | 0 | 28136 2 | 6:15.12 | 4:22.50 | 28137 | 47836 3 | 10:37.62 | 9:10.70 | 47837 | 89156 4 | 19:48.57 | 7:39.48 | 89157 | 123629 5 | 27:28.30 | 11:03.65 | 123630 | 173419 6 | 38:32.20 | 5:21.65 | 173420 | 197559 7 | 43:54.10 | 2:16.10 | 197560 | 207769 8 | 46:10.20 | 2:20.35 | 207770 | 218304 9 | 48:30.55 | 4:05.55 | 218305 | 236734 10 | 52:36.35 | 3:50.72 | 236735 | 254056 11 | 56:27.32 | 3:01.30 | 254057 | 267661 12 | 59:28.62 | 2:56.05 | 267662 | 280866
Range status and errors
Selected range
Filename C:\ELITE CLASICA\Albeniz- Iberia- Espaсa- Barenboim\CD.wav
Peak level 98.4 % Range quality 100.0 % Copy CRC 6FE8FD21 Copy OK
No errors occurred
AccurateRip summary
Track 1 accurately ripped (confidence 2) [5F172347]Track 2 accurately ripped (confidence 2) [8E3ACC14]Track 3 accurately ripped (confidence 2) [A0932B76]Track 4 accurately ripped (confidence 2) [E20EB306]Track 5 accurately ripped (confidence 2) [2D717A0F]Track 6 accurately ripped (confidence 2) [042659C6]Track 7 accurately ripped (confidence 2) [CBAED1D5]Track 8 accurately ripped (confidence 2) [6815C44F]Track 9 accurately ripped (confidence 2) [46FB845F]Track 10 accurately ripped (confidence 2) [0EAA4DB7]Track 11 accurately ripped (confidence 2) [51307371]Track 12 accurately ripped (confidence 2) [AE1AF375]
All tracks accurately ripped
End of status report



Показать сообщения:    

Текущее время: 07-Дек 21:24

Часовой пояс: UTC + 3


Вы не можете начинать темы
Вы не можете отвечать на сообщения
Вы не можете редактировать свои сообщения
Вы не можете удалять свои сообщения
Вы не можете голосовать в опросах
Вы не можете прикреплять файлы к сообщениям
Вы не можете скачивать файлы