(Classical Guitar) Filomena Moretti plays Albeniz, Bach, Barrios, De Falla, etc. [Live] - 2002, APE (image+.cue) lossless


 

[Цитировать]

Filomena Moretti plays Albeniz, Bach, Barrios, De Falla, etc.
Жанр: Classical Guitar
Год издания диска: 2002
Издатель (лейбл): Transart Live
Аудиокодек: APE
Тип рипа: image+.cue
Битрейт аудио: lossless
Продолжительность: 01:04:29
Источник: скачано с
сайт-источник/ник/другое: ED2K
Треклист:
01. Prélude BVW998 (Johann Sebastian Bach)
02. Fugue BVW998 (Johann Sebastian Bach)
03. Allegro BVW998 (Johann Sebastian Bach)
04. Fantasia (John Dowland)
05. Fantasia X (Alonso Mudarra)
06. Fandango (Joaquin Rodriguo)
07. Passacaglia (Joaquin Rodriguo)
08. Zapateado (Joaquin Rodrigo)
09. Homenaje a Debussy (Manuel de Falla)
10. Danza del molinero (Manuel de Falla)
11. Danza del fuego fatuo (Manuel de Falla)
12. Sueño en la floresta (Agustin Barrios-Mangore)
13. Sevilla (Isaac Albeniz)
14. Jota (Francisco Elxca Tarrega)
15. Asturias, Leyenda preludio (Isaac Albeniz)
Исполнители: Filomena Moretti
Дополнительная информация: Live концерт; allmusic.com

Содержание индексной карты (.CUE)

PERFORMER "Filomena Moretti"TITLE "Transart LIVE"FILE "CDImage.ape" WAVE TRACK 01 AUDIO TITLE "Prélude BVW998 (Johann Sebastian Bach)" PERFORMER "Filomena Moretti" INDEX 01 00:00:00 TRACK 02 AUDIO TITLE "Fugue BVW998 (Johann Sebastian Bach)" PERFORMER "Filomena Moretti" INDEX 01 02:52:34 TRACK 03 AUDIO TITLE "Allegro BVW998 (Johann Sebastian Bach)" PERFORMER "Filomena Moretti" INDEX 01 08:40:05 TRACK 04 AUDIO TITLE "Fantasia (John Dowland)" PERFORMER "Filomena Moretti" INDEX 00 11:44:03 INDEX 01 11:47:60 TRACK 05 AUDIO TITLE "Fantasia X (Alonso Mudarra)" PERFORMER "Filomena Moretti" INDEX 00 16:07:49 INDEX 01 16:11:31 TRACK 06 AUDIO TITLE "Fandango (Joaquin Rodriguo)" PERFORMER "Filomena Moretti" INDEX 00 18:33:35 INDEX 01 18:37:17 TRACK 07 AUDIO TITLE "Passacaglia (Joaquin Rodriguo)" PERFORMER "Filomena Moretti" INDEX 01 22:21:59 TRACK 08 AUDIO TITLE "Zapateado (Joaquin Rodrigo)" PERFORMER "Filomena Moretti" INDEX 01 26:45:55 TRACK 09 AUDIO TITLE "Homenaje a Debussy (Manuel de Falla)" PERFORMER "Filomena Moretti" INDEX 00 29:56:14 INDEX 01 29:59:71 TRACK 10 AUDIO TITLE "Danza del molinero (Manuel de Falla)" PERFORMER "Filomena Moretti" INDEX 01 33:06:21 TRACK 11 AUDIO TITLE "Danza del fuego fatuo (Manuel de Falla)" PERFORMER "Filomena Moretti" INDEX 01 36:00:01 TRACK 12 AUDIO TITLE "Sueño en la floresta (Agustin Barrios-Mangore)" PERFORMER "Filomena Moretti" INDEX 00 37:56:32 INDEX 01 38:00:15 TRACK 13 AUDIO TITLE "Sevilla (Isaac Albeniz)" PERFORMER "Filomena Moretti" INDEX 00 44:03:01 INDEX 01 44:06:58 TRACK 14 AUDIO TITLE "Jota (Francisco Elxca Tarrega)" PERFORMER "Filomena Moretti" INDEX 00 49:22:54 INDEX 01 49:26:36 TRACK 15 AUDIO TITLE "Asturias, Leyenda preludio (Isaac Albeniz)" PERFORMER "Filomena Moretti" INDEX 00 57:33:24 INDEX 01 57:40:57

Скриншот спектра частот




Показать сообщения:    

Текущее время: 08-Дек 19:08

Часовой пояс: UTC + 3


Вы не можете начинать темы
Вы не можете отвечать на сообщения
Вы не можете редактировать свои сообщения
Вы не можете удалять свои сообщения
Вы не можете голосовать в опросах
Вы не можете прикреплять файлы к сообщениям
Вы не можете скачивать файлы