(Classical) Robert Schumann - The Organ Works - Olivier Vernet - 2010, FLAC (image+.cue) lossless


 

[Цитировать]

Robert Schumann - The Organ Works - Olivier Vernet
Жанр: Classical
Страна-производитель диска: France
Год издания диска: 2010
Издатель (лейбл): Ligia Digital
Номер по каталогу: Lidi 0104222-10
Дата записи: 2010
Аудиокодек: FLAC
Тип рипа: image+.cue
Битрейт аудио: lossless
Продолжительность: 60:23
Источник: собственный рип
Наличие сканов в содержимом раздачи: да
Треклист:
Robert Schumann (1810-1856)
[1]-[6] Studien für den Pedalflügel, Op.56
(Etudes in Canon Form, for pedal piano)
[7]-[10] Skizzen für den Pedalflügel, Op.58
(Sketches, for pedal piano)
[11]-[16] Sechs Fugen über den Namen BACH, Op.60
(Fugues on B-A-C-H)
Исполнители:
Olivier Vernet
Organ Stiehr-Jaquot (1859/1873) de l'église St-Michel de Wisches (67)

Лог создания рипа

Exact Audio Copy V1.0 beta 3 from 29. August 2011
EAC extraction logfile from 21. November 2013, 1:41
Olivier Vernet / Schumann - The Organ Works
Used drive : HL-DT-STDVDRAM GSA-4083N Adapter: 1 ID: 0
Read mode : SecureUtilize accurate stream : YesDefeat audio cache : YesMake use of C2 pointers : No
Read offset correction : 667Overread into Lead-In and Lead-Out : NoFill up missing offset samples with silence : YesDelete leading and trailing silent blocks : NoNull samples used in CRC calculations : YesUsed interface : Native Win32 interface for Win NT & 2000
Used output format : User Defined EncoderSelected bitrate : 896 kBit/sQuality : HighAdd ID3 tag : NoCommand line compressor : C:\Program Files\Exact Audio Copy\Flac\flac.exeAdditional command line options : -V -8 %source%
TOC of the extracted CD
Track | Start | Length | Start sector | End sector --------------------------------------------------------- 1 | 0:00.00 | 2:08.29 | 0 | 9628 2 | 2:08.29 | 4:02.45 | 9629 | 27823 3 | 6:10.74 | 2:02.63 | 27824 | 37036 4 | 8:13.62 | 3:49.61 | 37037 | 54272 5 | 12:03.48 | 2:33.28 | 54273 | 65775 6 | 14:37.01 | 3:27.56 | 65776 | 81356 7 | 18:04.57 | 2:49.55 | 81357 | 94086 8 | 20:54.37 | 3:01.00 | 94087 | 107661 9 | 23:55.37 | 4:45.05 | 107662 | 129041 10 | 28:40.42 | 2:42.22 | 129042 | 141213 11 | 31:22.64 | 5:20.28 | 141214 | 165241 12 | 36:43.17 | 5:51.16 | 165242 | 191582 13 | 42:34.33 | 3:00.55 | 191583 | 205137 14 | 45:35.13 | 4:54.61 | 205138 | 227248 15 | 50:29.74 | 2:35.43 | 227249 | 238916 16 | 53:05.42 | 7:16.32 | 238917 | 271648
Range status and errors
Selected range
Filename J:\New Music\Schumann - The Organ Works (Olivier Vernet)\Schumann - The Organ Works.wav
Peak level 69.4 % Extraction speed 2.8 X Range quality 100.0 % Test CRC C3DDF5FE Copy CRC C3DDF5FE Copy OK
No errors occurred
End of status report
==== Log checksum 4804E3457965F5AFEC509E26BD159806401C1288FD722CDD7390FAD8377358DA ====



Показать сообщения:    

Текущее время: 24-Янв 12:13

Часовой пояс: UTC + 3


Вы не можете начинать темы
Вы не можете отвечать на сообщения
Вы не можете редактировать свои сообщения
Вы не можете удалять свои сообщения
Вы не можете голосовать в опросах
Вы не можете прикреплять файлы к сообщениям
Вы не можете скачивать файлы